ВИА Красные маки - Кружатся диски (1980)



Название винила: Кружатся диски
Исполняет: ВИА Красные маки
Жанр: ВИА, Советская эстрада
Выпущено в: 1980
Композиций: 8
Пластинок: 1
Фирма: Мелодия
Номер по каталогу: С60 14117-18

Формат: flac 24/96KHz
Вес: 754mb

Послушать


Список композиций:
Сторона 1.
01 - Кружатся диски. (Д.Тухманов - И.Кохановский)
02 - Ясно всё. (А.Хоралов - И.Кохановский)
03 - Интерлюдия. (Ю.Чернавский)
04 - Помни. (А.Хоралов - И.Кохановский)

Сторона 2.
01 - Ты мне снишься. (В.Мигуля - И.Кохановский)
02 - Я тебя не прощу. (В.Добрынин - И.Кохановский)
03 - Когда вокруг танцуют. (С.Сархан - И.Кохановский)
04 - Было и прошло. (В.Добрынин - И.Кохановский)

Аранжировки Ю.Чернавского.
Звукорежиссер С.Теплов. Редактор В.Рыжиков.




Подписываемся на канал

Скачать lossless :
mail

  • 100

Комментариев 3

Офлайн
supermouper 21 февраля 2020 01:52

красные маки конверт необычный спереди значок и названия песен
давно хотел послушать диск. воще тиховатая 162% центральный голос
тоже тиховато подпевки девица-норм .хоралов вторая уже узнаваем но
голос часто меняется громкость...идея нон стоп дискотечно. старс он
45 упредили.партия тоже любила диско поощряла в стране.походу диско
вообще не цензурировалось . в центре панорамы сделали вокал по
бокам ритм бас . хоралов поёт но 82 "дай мне посмотреть в глаза"
конечно лучше но там скорее всего LP не было . с виду пластинка
кажется лёгкой как бы ритмы инструментал . фус во всю играет
"лтава" . безусловно концептуальный альбом а разные композиторы
придают шарм . есть от бони-м фишка в припеве .первая сторона
приятно. несомненно есть группы которе не отторгаешь фибрами
женщина в конце кружатся диски хотела привнести эротические нотки
как на западе . о мигуля земляне кто раньше..это важно..обе вышли в
80.у одного гитара горит на обложке . ого усложнили .конечно это
после мигули или они обыграли всё же .по сути от мигули осталось
лишь три строчки куплета остальное другое аккорды итп .тут вообще в
мажоре вышло там минорный диск мигули воще . вторая сторона быстрей
видимо разогрелись-теперь ускоряемся...интересная вокальная режисура - когда срываются на крик то это и есть норм. громкость вокала а так тише. вот пугачова хорошо прописывалась или кикабидзе
инструменты гдето вдалеке еле слышно " лётная погода".в детсве не слышал красные маки но услышав тот сингл уже стал фэном и кстати никогда не ооторгается слушая и нет скуки .и группа более молодёжная..а вот самоцветы песняры сябры - для зрелых .пахмутова конечно как композитор широка была .я никогда не танцевал в ссср. на школьной дискотеке сидел сбоку вдалеке слушая видео кидс и италло диско крутили везде . может в 80е на танцполах были красные маки но всё же люди в середине 80-х уже не модно.там итальянцы пошли рокетс дип пёрпл .стали насыщать рынок. хорошо тогда пьеху не качал не слушал . услышав на сингле сёдня я не мог слушать-
по нотам попадает а вот характер подача вялость не для меня обороты .. было и прошло сложно тут вокал прям слышно кого куда расставили. как бы говорят пока закругляться .зачем зажгли фаер на гитаре .дым под ногами облака . руководитель порой менялся виду сингл 77 от лефф5 скачал роща соловьиная. о тут поют когото западного "от сувенира к сувениру" громкость 137 .раньше играли более серьёзное более партийное шаги на космодром .но и более усложнённый вокализ . и вот дай мне посмотерть глаза" -82 пик и красное знамя и музкальной сложности максимум ...скоростной джаз рок. далее хоралов всплывёт с новогодними игрушками диск уже сольно
и следущий ..странный мир

Офлайн
vova56 21 февраля 2020 19:02
Примерно так TRACK 01 AUDIO TITLE "Кружатся диски (Д.Тухманов - И.Кохановский)" INDEX 01 00:04:00 TRACK 02 AUDIO TITLE "Ясно все (А.Хоралов - И.Кохановский)" INDEX 01 06:26:26 TRACK 03 AUDIO TITLE "Интерлюдия (Ю.Чернавский)" INDEX 01 12:26:00 TRACK 04 AUDIO TITLE "Помни (А.Хоралов - И.Кохановский)" INDEX 01 14:10:00 TRACK 05 AUDIO TITLE "Ты мне снишься (В.Мигуля - И.Кохановский)" INDEX 01 20:37:00 TRACK 06 AUDIO TITLE "Я тебя не прощу (В.Добрынин - И.Кохановский)" INDEX 01 25:31:20 TRACK 07 AUDIO TITLE "Когда вокруг танцуют (С.Сархан - И.Кохановский)" INDEX 01 29:39:50 TRACK 08 AUDIO TITLE "Было и прошло (В.Добрынин - И.Кохановский)" INDEX 01 33:08:34
Офлайн
boyhunt 21 февраля 2020 20:40

FILE "ВИА Красные маки - Кружатся диски (1980)(С60 14117-18).flac" WAVE
TRACK 01 AUDIO
TITLE "Кружатся диски (Д.Тухманов - И.Кохановский)"
INDEX 01 00:00:00
TRACK 02 AUDIO
TITLE "Ясно все (А.Хоралов - И.Кохановский)"
INDEX 01 06:26:26
TRACK 03 AUDIO
TITLE "Интерлюдия (Ю.Чернавский)"
INDEX 01 12:26:00
TRACK 04 AUDIO
TITLE "Помни (А.Хоралов - И.Кохановский)"
INDEX 01 14:10:00
TRACK 05 AUDIO
TITLE "Ты мне снишься (В.Мигуля - И.Кохановский)"
INDEX 01 20:37:00
TRACK 06 AUDIO
TITLE "Я тебя не прощу (В.Добрынин - И.Кохановский)"
INDEX 01 25:31:20
TRACK 07 AUDIO
TITLE "Когда вокруг танцуют (С.Сархан - И.Кохановский)"
INDEX 01 29:39:50
TRACK 08 AUDIO
TITLE "Было и прошло (В.Добрынин - И.Кохановский)"
INDEX 01 33:08:34

Информация
Посетители, находящиеся в группе Гость, не могут оставлять комментарии к данной публикации.
  • Яндекс.Метрика