Последние комментарии

Офлайн
totkto Вчера, 09:44

Charles Mingus - Compilation (1980)


Эта джазовая итальянская серия просто чудесна и по оформлению и особенно по записи. У меня есть Котрейн из этой серии, так там трек Ole записан лучше чем на фирменном атлантическом диске (правда не первопресс, а Re несмотря на то, что Re делал Георг Пирос. Басы у итальянского лакировщика получились значительно мясистее.

Офлайн
perez68 15 октября 2019 21:57

Рок-Острова - Солнечный ветер (1994); Рок-Острова - Взлети же к небу (1997)

gitarist, Всё в порядке  разобралсяblush мой косяк. Перепутал пароли от архивов. 

Офлайн
gitarist 14 октября 2019 19:11

Moonlight Sax - Melodien fur Verliebte (MC rip) 1992

vitek31rus, Ок, куе заменил.

--------------------
http://retrovinylcdmc.ucoz.org/
Офлайн
vitek31rus 14 октября 2019 18:49

Moonlight Sax - Melodien fur Verliebte (MC rip) 1992

gitarist,

Нет проблем. Сразу и у себя замени. Чтобы народ не вводился в заблуждение

Офлайн
gitarist 14 октября 2019 10:19

Moonlight Sax - Melodien fur Verliebte (MC rip) 1992

Я так понял, что в коменты ты залил исправный куе. Отлично! Спасибо за это!

--------------------
http://retrovinylcdmc.ucoz.org/
Офлайн
vitek31rus 14 октября 2019 09:15

Moonlight Sax - Melodien fur Verliebte (MC rip) 1992

Цитата: gitarist

Всё возможно. Куе делаю не я. Может есть косяки. Если напрягает, буду заливать без куе.

Андрей, не напрягает. Но сам знаешь: грабанут куем твой альбом и потащат по сети. А там стороны перепутаны. И потом будут концы искать. Так что лучше сразу исправить

Офлайн
Alex95 13 октября 2019 22:15
Офлайн
Alex95 13 октября 2019 22:09

Das Ensemble Serge Tannoff - Russische Impressionen 1968

А еще раздать возможно?

Офлайн
gitarist 13 октября 2019 18:51

Moonlight Sax - Melodien fur Verliebte (MC rip) 1992

Всё возможно. Куе делаю не я. Может есть косяки. Если напрягает, буду заливать без куе.

--------------------
http://retrovinylcdmc.ucoz.org/
Офлайн
vitek31rus 13 октября 2019 11:20

Moonlight Sax - Melodien fur Verliebte (MC rip) 1992

Кажется в прилагаемом куе стороны перепутаны

 

VA - Moonlight Sax - Melodien fur Verliebte.cue

 

REM GENRE Easy Listening, Instrumental
REM DATE 1992
REM COMMENT Digitizing gitarist
PERFORMER "VA"
TITLE "Moonlight Sax - Melodien fur Verliebte"
FILE "02 - Seite B.flac" WAVE
TRACK 01 AUDIO
TITLE "La Paloma"
PERFORMER "Manny Sax"
INDEX 01 00:00:00
TRACK 02 AUDIO
TITLE "I hob' di gern "
PERFORMER "Manny Sax"
INDEX 01 02:32:37
TRACK 03 AUDIO
TITLE "Eine Reise ins Gluck"
PERFORMER "Manny Sax"
INDEX 01 05:25:31
TRACK 04 AUDIO
TITLE "Magic Moments"
PERFORMER "Dynamics"
INDEX 01 07:46:22
TRACK 05 AUDIO
TITLE "Sax Boogie"
PERFORMER "Manny Sax"
INDEX 01 10:56:16
TRACK 06 AUDIO
TITLE "Midnight Sax"
PERFORMER "Manny Sax"
INDEX 01 14:04:15
FILE "01 - Seite A.flac" WAVE
TRACK 07 AUDIO
TITLE "Country Sax "
PERFORMER "Manny Sax"
INDEX 01 00:00:00
TRACK 08 AUDIO
TITLE "Liebe auf Zeit"
PERFORMER "Erwin Fliegel"
INDEX 01 03:22:17
TRACK 09 AUDIO
TITLE "Kleine Bianca"
PERFORMER "Manny Sax"
INDEX 01 06:02:61
TRACK 10 AUDIO
TITLE "Romantic Nights"
PERFORMER "Billy Vaughan"
INDEX 01 08:54:01
TRACK 11 AUDIO
TITLE "Melodie fur Dich"
PERFORMER "Manny Sax"
INDEX 01 11:40:30
TRACK 12 AUDIO
TITLE "Nur mit Dir"
PERFORMER "Manny Sax"
INDEX 01 15:30:00

 

Офлайн
ALexPetrov 13 октября 2019 02:27

Поет Марисоль (1980)

Марисоль - испанская певица и актриса. В 1960-е годы как ребёнок и подросток играла главную роль девочки Марисоли в большом количестве музыкальных кинофильмов, имевших оглушительный успех. Когда выросла, перешла на «взрослые» роли. С 1960 по 1983 записала множество дисков в жанрах болеро, фламенко, поп. Подробнее можно почитать в wiki и в Wiki earth

Офлайн
superglaz 12 октября 2019 20:46

Поет Марисоль (1980)

Пластинка моего детства!

Офлайн
supermouper 12 октября 2019 05:08

Л. Субраманиам - Время должно измениться. Джазовые встречи в Москве (1990)

время должно измениться индия ганга привлекательно громкий релиз можно слушать в ядиске. оказалось что кроме первой темы все остальные это каеф.главное ж что всё понятно и доступно..в часности вторая - шаги обкучиваюся как танцы с тенью а третья вообще отлично мажор минор красиво фьюжн .соло тут могли бы сдирать гитаристы в духе мальмстина. вторая- гораздо сложнее и скорее написана для скрипки. ганг это уже индийские пейзажи . да конечно чтоб так играть надо с детства гонять гаммы а не гулять с детьми .впрочем элтон джон тоже детство просидел за пианино а отец с ремнём поодаль но он ему благодарен что не порол .маликов тоже занимался с ремнём на пианино батиным- по итогу коллекция ремней в рояле. ганг - идёт на одной ноте как бы мидитативно. у рокетс есть такая песня "атомик контроль". но вцелом можно было бы развить увезти в другие тона... вот у битлз есть такая же - тумморов нэвер кновз. конечно это не джаз. лады ходы чисто европа- индия гармония шансон отдалённо похоже на весна в шанхае . в последней сквозит фламенко аля гоингс-эсмеральда . пальцами играет чел но такое проще медиатором мелизмы сквозят в духе блэкмор барокко. последняя
снова минорные европейские лады отсылают к баху- любимому композитору блэкмора / а вот марисоль- не смог слушать слишком шансонно минорно заунывно . индийский скрипач отразил индию во второй теме первой стороны и хоть чтото из индийских ладов там было
истиная пальцеломка поэтому тема короткая. третья - тут и вокал индуса очень быстрая читка рэпа.

вообще подозрительная тишина в зале даже не верится что это встречи в москве
.в последне время очень мало слушаю но много качаю в часности случайно обнаружив что на вто летом было много релизов вот к зиме будет много чё послушать пока снег не заметёт тропинки

--PS а вообще в фокусе- автограф уж неделю тут и беркут с тынку на ютубе и какието записи-84 в мосфильме. беркут поёт робко и неуверенно-боится.а вот на мелодия лп через год - уже небоится теже песни. поэтому я изучаю эту группу ещё месяц буду . единственная группа ссср записи которой послушав на западе -пригласили их на фестиваль на одну сцену с маккартни пинк флойд итп 

Офлайн
Ovoron12 10 октября 2019 21:54

Burt Blanca - Instrumental (MC rip) 1997

Цитата: gitarist

Ovoron12, Добавил облако

Спасибо большое. Забрал.blush

Офлайн
gitarist 10 октября 2019 19:44

Burt Blanca - Instrumental (MC rip) 1997

Ovoron12, Добавил облако

--------------------
http://retrovinylcdmc.ucoz.org/
  • Яндекс.Метрика