Приглашаю тебя (1984)

Приглашаю тебя (1984)


Информация о пластинке:
Название: Приглашаю тебя
Исполнитель: Various
Жанр: Pop, Советская эстрада
Год выпуска: 1984
Количество композиций: 10
Количество пластинок: 1
Фирма: Мелодия
Номер по каталогу: C60 20285 007

Информация о файле с оцифровкой:
Формат: mp3 + lossless
Качество: cbr 320 kbps + lossless 16 bit/48 kHz
Размер файла: 101 + 229 Мб (3% на восстановление)

Предпрослушка: mp3 vbr 256 kbps


Список композиций:
SideА
A1-Может,нас любовь нашла?
A2-Амурский вальс
A3-Березовый вечер
A4-Любви начало
A5-Не повторяется такое никогда
SideВ
B1-Приглашаю тебя
B2-За речной излукою
B3-Любимые женщины
B4-Встречи-разлуки
B5-Ты не спрашивай меня



Скачать mp3:
Пароль к архиву: нет
Внимание! У Вас нет прав для просмотра скрытого текста.


Скачать lossless:
Пароль к архиву: нет
Внимание! У Вас нет прав для просмотра скрытого текста.


+17

Комментариев 18

Офлайн
zencd 21 августа 2012 17:49
01.Татьяна Рузавина и Сергей Таюшев - Может,нас любовь нашла?
02.Самоцветы - Амурский вальс
03.Валентина Толкунова - Березовый вечер
04.Ксения Георгиади - Любви начало
05.Пламя - Не повторяется такое никогда
06.Валентина Толкунова - Приглашаю тебя
07.Пламя - За речной излукою
08.Лев Лещенко - Любимые женщины
09.Ксения Георгиади - Встречи-разлуки
10.Татьяна Рузавина и Сергей Таюшев - Ты не спрашивай меня
Офлайн
VanHelsing09 23 августа 2012 22:11
вы либо приколист либо я не знаю... сколько не смотрю все практически оцифровки сиди качества, вот вот и спрашивается зачем это делать то ???? неужели с парамитрами 24/192 нельзя было сделать ????
Офлайн
lefff5 23 августа 2012 22:23
Цитата: VanHelsing09
неужели с парамитрами 24/192 нельзя было сделать ????


Так может и речи Брежнева риповать в качестве 24/192? Чтобы было различимо дыхание зала, причмокивание губ лектора и шуршание страницы при переворачивании.
Толкуновой и Лещенко хватит предложенного качества.
Это не джаз, большой симфонический оркестр, или хард-рок, когда важны нюансы.
Журналиста (автора-оцифровщика) обижать не надо. Когда то Пластинка.орг начинала только с мр3. И всем это нравилось.

adey, спасибо за работу. Данный диск не частый гость меломанских сайтов. Работа по оцифровке достойная.
Офлайн
ollleg 24 августа 2012 01:42
Цитата: VanHelsing09
вы либо приколист либо я не знаю... сколько не смотрю все практически оцифровки сиди качества, вот вот и спрашивается зачем это делать то ???? неужели с парамитрами 24/192 нельзя было сделать ????


Да скажи спасибо,что вообще делает! mad

Сам приколись,накупи аппаратуры,гору винила и цифруй в 24-192,пару раз каменты прочтёшь под своей оцифровкой,типа твоего,вот тут и задумаешься:
Нах..я мне всё это надо???

adey ,не обращай внимания,некоторым не только халяву подавай,но ещё и поизголяться дай в каментах...уж так устроен человек ,чем халявней-тем наглее(мыслишка в голову пришла,а не зарядить ли паролем релизы и на народ их залить,а за скачку рэблэй требовать,мож меньше умничать будут некоторые экземпляры??? king )
,хорошо хоть,через интернет не могут сесть на голову ... wink

с парамИтрами видать у нас не всё в порядке на сайте...пора на денежный эквивалент переходить... thumbdown
Офлайн
lefff5 24 августа 2012 09:23
Думаю, что выражу мнение большинства - удалить аккаунт девятого ВанХельсинга или БОЛЬШОЙ бан. Пусть борется с вампирами и ведьмами на другом сайте

Офлайн
вальдемар 24 августа 2012 10:54
ОЛЛЛЕЖА! МНЕ ПРОЕЗДНОЙ ПО БЛАТУ НА ГОД ЗА 300 РУБЛЁВ, ДА ЖЕТЬ?

вот чего мой не понимать так это как из этого cue сделать, с пластинки песня нужна для личных сборников разно-настроенческих, а не выколупать.
REM GENRE Pop
REM DATE 1979
PERFORMER "Веселые Ребята"
TITLE "Музыкальный Глобус"
FILE "side-a.flac" WAVE
TRACK 01 AUDIO
TITLE "Никогда не поверю"
INDEX 01 00:00:00
TRACK 02 AUDIO
TITLE "Мона Лиза"
INDEX 01 04:30:00
TRACK 03 AUDIO
TITLE "Уходило лето"
INDEX 01 10:25:00
TRACK 04 AUDIO
TITLE "Люба-Любовь"
INDEX 01 13:21:00
FILE "side-b.flac" WAVE
TRACK 05 AUDIO
TITLE "Школьная пора "
INDEX 01 00:00:00
TRACK 06 AUDIO
TITLE "Нет, я не жду "
INDEX 01 03:31:00
TRACK 07 AUDIO
TITLE "Что ты хочешь мне сказать "
INDEX 01 06:42:00
TRACK 08 AUDIO
TITLE "В последний раз "
INDEX 01 10:32:00
TRACK 09 AUDIO
TITLE "Доброте предела нет "
INDEX 01 13:39:00
Офлайн
ollleg 24 августа 2012 12:04
Вальдемар,тебе нужен фубар2000,на нём можно выдернуть именно тот трек,который тебе нужен,можно так же в программу Wavelab-6 полностью вставить диск,обрезать лишнее и забрать себе то,что нужно.Ещё вариант-в Exact Audio Copy вставить CUE и "выкинуть" все лишние треки,записать на болванку тот,который нужен...
Я не качал у ADEY релизы,а что,мп3 у него не порезан на треки разве?
Обычно Flac одним файлом идёт,а мп3 режется и выставляется в архиве уже готовыми треками.....
Офлайн
lefff5 24 августа 2012 12:35
adey мр3 режет на треки сам.
Вальдемар приложил в примере куй.файл с пластинки "Музыкальный глобус", которую adey ещё не выкладывал.
На нашем сайте "Глобус" цифровали Админ и Сварной. У пластинки мр3 порезан, лослесса у него нет.
Сварной выкладывал с лослессом, но у него есть и мр3 потрековый.
Вальдемар наверное для примера приложил чужой куй. Не надо ходить, где попало. Вот наверное и подхватили какую-нито заразу с куем.

Я режу для целей потрековой работы через Medieval CUE Splitter.
В случае неудачи (бывает) уже под контролем ушей через mp3DirectCut после пропуска через AIMP2 Audio Converter (заодно всё внимательно прослушивается).

Программы бесплатные, простые, понятные даже для старых компьютерных чайников, типа меня.
Офлайн
вальдемар 24 августа 2012 13:31
нет я в качестве хорошем нашел на треккере, звук мне нравится ни добавить ни убавить, а оказался без куя, а на куя мне без куя, когда с куем докуя. и вот там в комментариях и выложили это, только вот я и не знаю как из этого того что есть слепить, то и полюбить?
Офлайн
ollleg 24 августа 2012 13:45
Цитата: вальдемар
нет я в качестве хорошем нашел на треккере

Там частенько бывают 3мп "цельные",ничего не поделаешь....Придётся тебе Вальдемар,слушать всё "как есть" happy2 ,если сам резать ещё не умеешь.
Мои соболезнования. oops
Офлайн
вальдемар 24 августа 2012 13:53
любишь да, что кому-то хуже чем тебе в данную секунду?! резать я умею, но не буквы написанные, в куй как их запихнуть, если блокнотом куй открыть, то то что видно в блокноте это я сейчас и вижу, а в сам контейнер мать его как это запихать?
Офлайн
ollleg 24 августа 2012 14:23
Вальдемар,я могу посоветовать тебе следующее:
Скачиваешь RG CUE MAKER 1.01,я для тебя на народ залил.
Программа не требует установки на компьютере,можешь установить её в любой папке,открываешь её,далее-открыть аудио(обязательно wav,если у тебя мп3-переведи его в wav)-выбираешь свой непорезанный файл,он начинает воспроизводиться,режешь его,вставляя сам все названия исполнителей и названия песен,последний этап-сохранить СИЕ как-даёшь название и сохраняешь в туже папку,откуда вытягивал свой файл в вафе.Всё.у тебя готов собственный куй,можешь им резать,на чём угодно и как угодно....
п.с.там в архиве,кажется присутствует полное описание на русском,как и что делать... winked

Действуй.
Офлайн
adey 24 августа 2012 15:27
Всем Привет! Сегодня оцифровал еще одну пластинку, надеюсь ее выложить на сайте, чтобы Вы оценили! И желаю всем приятного прослушивания и хорошего настроения.
Офлайн
ollleg 24 августа 2012 18:25
Цитата: adey
Сегодня оцифровал еще одну пластинку, надеюсь ее выложить на сайте, чтобы Вы оценили!

Андрей,ждём!
Выкладывай очередную оцифровку! thumbsup
Офлайн
Svarnoy 24 августа 2012 18:50
Цитата: attax
будь готов к АрмагеДДону
со стороны супер-аудиофиллеров

аудиофиллеры вроде сдвинутые на всю голову, здесь вроде все трезво мыслящие...
... ну кроме меня
Информация
Посетители, находящиеся в группе Гость, не могут оставлять комментарии к данной публикации.
  • Яндекс.Метрика