Uriah Heep - The Best Of... (1975)



Исполнитель: Uriah Heep
Альбом: The Best Of... (LP vinyl)
Лейбл: Bronze Records 89 600 XOT
Год выпуска: 1975
Жанр: Classic Rock
Формат: flac (image) + cue в коментариях
Размер: 1,84 Gb
Качество: lossless 24/192 kHz
Наличие сканов в архиве: Да

Содержание:

Side One
01 - Gypsy
02 - Bird Of Prey
03 - July Morning
04 - Look At Yourself

Side Two
05 - Easy Livin'
06 - The Wizard
07 - Sweet Lorraine
08 - Stealin'
09 - Lady In Black
10 - Return To Fantasy

Внимание! У Вас нет прав для просмотра скрытого текста.


  • 100

Комментариев 1

Офлайн
gitarist 9 мая 2019 20:22

cue:
REM GENRE Classic Rock
REM DATE 1975
REM COMMENT Digitizing gitarist
PERFORMER "Uriah Heep"
TITLE "The best of..."
FILE "01 - Side One.flac" WAVE
  TRACK 01 AUDIO
    TITLE "Gypsy"
    INDEX 01 00:00:00
  TRACK 02 AUDIO
    TITLE "Bird Of Prey"
    INDEX 01 02:59:46
  TRACK 03 AUDIO
    TITLE "July Morning"
    INDEX 01 07:14:60
  TRACK 04 AUDIO
    TITLE "Look At Yourself"
    INDEX 01 17:53:48
FILE "02 - Side Two.flac" WAVE
  TRACK 05 AUDIO
    TITLE "Easy Livin'"
    INDEX 01 00:00:00
  TRACK 06 AUDIO
    TITLE "The Wizard"
    INDEX 01 02:37:38
  TRACK 07 AUDIO
    TITLE "Sweet Lorraine"
    INDEX 01 05:40:39
  TRACK 08 AUDIO
    TITLE "Stealin'"
    INDEX 01 09:58:38
  TRACK 09 AUDIO
    TITLE "Lady In Black"
    INDEX 01 13:19:42
  TRACK 10 AUDIO
    TITLE "Return To Fantasy"
    INDEX 01 16:54:55

--------------------
http://vinylcollection.ucoz.ru/
Информация
Посетители, находящиеся в группе Гость, не могут оставлять комментарии к данной публикации.
  • Яндекс.Метрика