джаз оркестр Радуга - The Rainbow Band (1983)

джаз оркестр Радуга - The Rainbow Band (1983)


Название винила: The Rainbow Band
Исполняет: джаз оркестр Радуга
Жанр: Jazz, Big Band
Выпущено в: 1983
Композиций: 8
Пластинок: 1
Фирма: Мелодия (МОЗГ)
Номер по каталогу: С60 19069 006

Формат: wav 32float/96 kHz
Вес: 1.49 GB

Предпрослушка: full album


Список композиций:

A1 Solitude
A2 Blues
A3 Saint-Louis Blues
A4 Big Swing Face
B1 Give It One
B2 Trumpet Boogie
B3 Dat Dere
B4 Piece For Orchestra

Солисты:
Валентин Давыдович (труба)
Вадим Гостев (тромбон)
Юрий Парменов (тенор-саксофон)
Владимир Добрынин (альт-саксофон)

рук. Аркадий Шацкий



Скачать lossless:
Внимание! У Вас нет прав для просмотра скрытого текста.


  • 0

Комментариев 3

Офлайн
Walther 17 октября 2016 20:34
Спасибо, хороший звук! Но желательно в раздаче иметь файл .cue
Офлайн
Walther 17 октября 2016 22:44
Собственно, подумалось - время есть, умение тоже, почему бы не сделать? smirk
Ну вот слепил на досуге, принимайте. Проверено Foobar'ом и Winamp'ом, работает.
REM GENRE Jazz
REM DATE 1983
REM Sergjazz_VINYLRIP
REM Мелодия С60 19069 006
PERFORMER "Джаз-оркестр Радуга"
TITLE "The Rainbow Band"
FILE "Джаз-оркестр Радуга - The Rainbow Band.wav" WAVE
  TRACK 01 AUDIO
    TITLE "Одиночество"
    PERFORMER "Джаз-оркестр Радуга"
    INDEX 01 00:00:00
  TRACK 02 AUDIO
    TITLE "Блюз"
    PERFORMER "Джаз-оркестр Радуга"
    INDEX 01 04:07:00
  TRACK 03 AUDIO
    TITLE "Сент-Луи блюз"
    PERFORMER "Джаз-оркестр Радуга"
    INDEX 01 08:36:17
  TRACK 04 AUDIO
    TITLE "Лицо свинга"
    PERFORMER "Джаз-оркестр Радуга"
    INDEX 01 12:33:32
  TRACK 05 AUDIO
    TITLE "С настроением"
    PERFORMER "Джаз-оркестр Радуга"
    INDEX 01 17:16:09
  TRACK 06 AUDIO
    TITLE "Буги для труб"
    PERFORMER "Джаз-оркестр Радуга"
    INDEX 01 20:16:00
TRACK 07 AUDIO
    TITLE "В движении"
    PERFORMER "Джаз-оркестр Радуга"
    INDEX 01 22:30:28
TRACK 08 AUDIO
    TITLE "Композиция"
    PERFORMER "Джаз-оркестр Радуга"
    INDEX 01 29:24:34

Офлайн
sergjazz 23 октября 2016 16:50
Walther,

спасибо за cue
Информация
Посетители, находящиеся в группе Гость, не могут оставлять комментарии к данной публикации.
  • Яндекс.Метрика