Paul Kuhn - Tanzparty (1961)

Paul Kuhn - Tanzparty (1961)


Информация о пластинке:
Название: Tanzparty
Исполнитель: Paul Kuhn
Жанр: Jazz, Easy Listening
Год выпуска: 1961
Количество композиций: 08
Количество пластинок: 1
Фирма: Columbia (Made in Germany)
Номер по каталогу: E 83732

Информация о файле с оцифровкой:
Формат: wav
Качество: PCM 16-44
Размер файла: 189 Мб (3% на восстановление)

Предпрослушка: mp3 cbr 320 kbps


Список композиций:
01. Foxtrott
02. Slow-Foxtrott
03. Cha-Cha / Bossa Nova
04. Lang-Samer Walzer
05. Baiao
06. Slow-Foxtrott
07. Foxtrott - Charleston
08. Beguine - Slow-Foxtrott




Данная оцифровка любезно предоставлена специально для нашего сайта пользователем Gavic!
Если вы хотите поддержать автора, то можете перечислить любую сумму на следующие кошельки:

Webmoney
Z373747998082
R129274974506
U110006053141


Скачать wav 16-44 (189 Мб):
Пароль к архиву: plastinka.org
Внимание! У Вас нет прав для просмотра скрытого текста.


+10

Комментариев 4

Офлайн
val2015 1 марта 2015 20:04
жаль, нет cue-файла, но за рип спасибо!!!
Офлайн
val2015 2 марта 2015 12:56
Вот не поленился, сделал cue, усли ком-то надо:

PERFORMER "Paul Kuhn"
TITLE "Open"
FILE "Paul Kuhn – Tanzparty – 1961 - Columbia E 83732.wav" WAVE
TRACK 01 AUDIO
TITLE "Foxtrott"
INDEX 01 00:00:00
TRACK 02 AUDIO
TITLE "Slow-Foxtrott"
INDEX 01 03:19:45
TRACK 03 AUDIO
TITLE "Cha-Cha / Bossa Nova"
INDEX 01 06:26:37
TRACK 04 AUDIO
TITLE "Lang-Samer Walzer"
INDEX 01 09:42:26
TRACK 05 AUDIO
TITLE "Baiao"
INDEX 01 13:34:20
TRACK 06 AUDIO
TITLE "Slow-Foxtrott"
INDEX 01 16:52:37
TRACK 07 AUDIO
TITLE "Foxtrott - Charleston"
INDEX 01 20:47:15
TRACK 08 AUDIO
TITLE "Beguine - Slow-Foxtrott"
INDEX 01 23:14:21
Офлайн
robatum 19 июля 2015 17:13
Ну и как этот CUE записать ? Что с ним дальше делать ? Копирую список, а вставить не получается. Не все же программистами являются. Объясните пожалуйста пошагово.
Офлайн
Робсон 24 августа 2016 23:26
Приятная, качественная работа. Спасибо).
Информация
Посетители, находящиеся в группе Гость, не могут оставлять комментарии к данной публикации.
  • Яндекс.Метрика