Franz Lambert - Franz Lamberts Hammond Hitparade 56 Schlager-Favoriten (1976)



Исполнитель: Franz Lambert
Альбом: Franz Lamberts Hammond Hitparade 56 Schlager-Favoriten (MC rip)
Лейбл: Philips 7598 003
Год выпуска: 1976
Жанр: Easy Listening, Instrumental
Формат: flac (image) + cue (в коментариях)
Размер: 509,5 mb
Качество: lossless 16/44.1 kHz
Наличие сканов в архиве: Да

Содержание:

Seite A
01 - Medley 4:45
A1.1 Ich Mach' Ein Gl?ckliches M?dchen Aus Dir
A1.2 Aber Am Abend Da Spielt Der Zigeuner
A1.3 ...Denn Seit Mehr Als Tausend Jahren
02 - Medley 2:58
A2.1 Ich Leb' Nur F?r Dich Allein
A2.2 She
03 - Medley 4:30
A3.1 Hey, Boss, Ich Brauch' Mehr Geld
A3.2 W?ren Tr?nen Aus Gold
A3.3 Ich Schick' Dir Eine Weisse Wolke
04 - Medley 4:33
A4.1 Theo, Wir Fahrn Nach Lodz
A4.2 Du L??t Mir Meine Welt
A4.3 Ich Hab' Die Liebe Verspielt In Monte Carlo
05 - Medley 4:59
A5.1 Du Kannst Nicht Immer Siebzehn Sein
A5.2 Ich Hab' Die Liebe Nicht Erfunden
A5.3 Marie, Der Letzte Tanz Ist Nur F?r Dich
06 - Medley 4:23
A6.1 Schmidtchen Schleicher
A6.2 Die Bouzouki, Die Nacht Und Der Wein
A6.3 Ich Bin Wie Du
07 - Medley 4:06
A7.1 Man Muss Das Leben Eben Nehmen, Wie Das Leben Eben Ist
A7.2 Komm Unter Meine Decke
A7.3 Rocky
08 - Medley 3:03
A8.1 Die Kleine Kneipe
A8.2 M?dchen Mit Den Traurigen Augen
09 - Medley 4:06
A9.1 Sch?ne Maid
A9.2 Carneval In Rio
A9.3 Komm, Gib Mir Deine Hand
10 - Medley 3:58
A10.1 Du Musst Nicht Weinen
A10.2 Hab Sonne Im Herzen
A10.3 Vergiss Die Liebe Nicht

Seite B
01 - Medley 4:45
B1.1 Hoch Auf Dem Gelben Wagen
B1.2 Junge, Die Welt Ist Sch?n
B1.3 Onkel Golle
02 - Medley 4:50
B2.1 La Montanara
B2.2 Auf Wiedersehn, Ihr Freunde Mein
B2.3 Halli-Hallo
03 - Medley 4:28
B3.1 Edelweiss
B3.2 Ein H?uschen Auf Zwei R?dern
B3.3 Fahrende Musikanten
04 - Medley 3:17
B4.1 Ich Denk An Dich
B4.2 Irgendwo Brennt F?r Jeden Ein Licht
05 - Medley 4:57
B5.1 Der Teufel Hat Den Schnaps Gemacht
B5.2 Sch?nes M?dchen Aus Arcadia
B5.3 Mariann, Mariann
06 - Medley 3:52
B6.1 Vagabund Der Liebe
B6.2 Die Schwarze Barbara
B6.3 Es War Einmal Eine Gitarre
07 - Medley 2:40
B7.1 Sch?n Wie Mona Lisa
B7.2 Der Zar Und Das M?dchen
08 - Medley 3:30
B8.1 Deine Spuren Im Sand
B8.2 Ich Hab' Noch Sand In Den Schuh'n Aus Hawaii
B8.3 Laguna D'Amor
09 - Medley 3:32
B9.1 Der Grosse Zampano
B9.2 Ein Mann Kehrt Heim
B9.3 Es Stieg Ein Engel Vom Olymp
10 - Medley 4:26
B10.1 Wenn Die Rosen Erbl?hen In Malaga
B10.2 Griechischer Wein
B10.3 Wann Wird's Mal Wieder Richtig Sommer

Внимание! У Вас нет прав для просмотра скрытого текста.


  • 100

Комментариев 1

Офлайн
gitarist 20 декабря 2019 10:48

-----------------------------------------------
~.cue:
-----------------------------------------------
REM GENRE Easy Listening, Instrumental
REM DATE 1976
REM COMMENT Digitizing gitarist
PERFORMER "Franz Lambert"
TITLE "Franz Lamberts Hammond Hitparade 56 Schlager-Favoriten"
FILE "01 - Seite A.flac" WAVE
TRACK 01 AUDIO
TITLE "Ich Mach' Ein Gluckliches Madchen Aus Dir/Aber Am Abend Da Spielt Der Zigeuner/...Denn Seit Mehr Als Tausend Jahren"
INDEX 01 00:00:00
TRACK 02 AUDIO
TITLE "Ich Leb' Nur Fur Dich Allein/She"
INDEX 01 04:46:17
TRACK 03 AUDIO
TITLE "Hey, Boss, Ich Brauch' Mehr Geld/Waren Tranen Aus Gold/Ich Schick' Dir Eine Weisse Wolke"
INDEX 01 07:46:53
TRACK 04 AUDIO
TITLE "Theo, Wir Fahrn Nach Lodz/Du Lasst Mir Meine Welt/Ich Hab' Die Liebe Verspielt In Monte Carlo"
INDEX 01 12:18:26
TRACK 05 AUDIO
TITLE "Du Kannst Nicht Immer Siebzehn Sein/Ich Hab' Die Liebe Nicht Erfunden/Marie, Der Letzte Tanz Ist Nur Fur Dich"
INDEX 01 16:51:57
TRACK 06 AUDIO
TITLE "Schmidtchen Schleicher/Die Bouzouki, Die Nacht Und Der Wein/Ich Bin Wie Du"
INDEX 01 21:51:62
TRACK 07 AUDIO
TITLE "Man Muss Das Leben Eben Nehmen, Wie Das Leben Eben Ist/Komm Unter Meine Decke/Rocky"
INDEX 01 26:16:35
TRACK 08 AUDIO
TITLE "Die Kleine Kneipe/Madchen Mit Den Traurigen Augen"
INDEX 01 30:23:72
TRACK 09 AUDIO
TITLE "Schone Maid/Carneval In Rio/Komm, Gib Mir Deine Hand"
INDEX 01 33:28:33
TRACK 10 AUDIO
TITLE "Du Musst Nicht Weinen/Hab Sonne Im Herzen/Vergiss Die Liebe Nicht"
INDEX 01 37:36:38
FILE "02 - Seite B.flac" WAVE
TRACK 11 AUDIO
TITLE "Hoch Auf Dem Gelben Wagen/Junge, Die Welt Ist Schon/Onkel Golle"
INDEX 01 00:00:00
TRACK 12 AUDIO
TITLE "La Montanara/Auf Wiedersehn, Ihr Freunde Mein/Halli-Hallo"
INDEX 01 04:45:64
TRACK 13 AUDIO
TITLE "Edelweiss/Ein Hauschen Auf Zwei Radern/Fahrende Musikanten"
INDEX 01 09:39:62
TRACK 14 AUDIO
TITLE "Ich Denk An Dich/Irgendwo Brennt Fur Jeden Ein Licht"
INDEX 01 14:09:37
TRACK 15 AUDIO
TITLE "Der Teufel Hat Den Schnaps Gemacht/Schones Madchen Aus Arcadia/Mariann, Mariann"
INDEX 01 17:28:74
TRACK 16 AUDIO
TITLE "Vagabund Der Liebe/Die Schwarze Barbara/Es War Einmal Eine Gitarre"
INDEX 01 22:27:63
TRACK 17 AUDIO
TITLE "Schon Wie Mona Lisa/Der Zar Und Das Madchen"
INDEX 01 26:21:63
TRACK 18 AUDIO
TITLE "Deine Spuren Im Sand/Ich Hab' Noch Sand In Den Schuh'n Aus Hawaii/Laguna D'Amor"
INDEX 01 29:01:70
TRACK 19 AUDIO
TITLE "Der Grosse Zampano/Ein Mann Kehrt Heim/Es Stieg Ein Engel Vom Olymp"
INDEX 01 32:34:09
TRACK 20 AUDIO
TITLE "Wenn Die Rosen Erbluhen In Malaga/Griechischer Wein/Wann Wird's Mal Wieder Richtig Sommer"
INDEX 01 36:21:27

--------------------
http://retrovinylcdmc.ucoz.org/
Информация
Посетители, находящиеся в группе Гость, не могут оставлять комментарии к данной публикации.
  • Яндекс.Метрика