Ricky King - Super Guitar Dancing (1989)

Ricky King - Super Guitar Dancing (1989)


Название винила: Super Guitar Dancing
Исполняет: Ricky King
Жанр: Instrumental
Выпущено в: 1989
Композиций: 14
Пластинок: 1
Фирма: Polyphon
Номер по каталогу: 841 768-1

Формат: flac 16/48 kHz
Вес: 329 Мб

Предпрослушка: mp3 cbr 320 kbps


Список композиций:
Side 1
01 Hello, Hello-A
02 Lambada
03 Blue Moonlight
04 Danser, Danser, Danser
05 On Silver Wings
06 Denise, mon Amour
07 Yalo, Yalo
Side 2
08 Teresa (una Stella ti darei)
09 Rock'n Roll Is King
10 Oasis
11 Pathetique
12 Cordoba
13 Avalon
14 Neverending Dreams



Скачать lossless (321 Мб):
Внимание! У Вас нет прав для просмотра скрытого текста.


Новость отредактировал: plastinka - 15-11-2015, 21:45
Причина: Ссылка для скачивания восстановленна!

+5

Комментариев 3

Офлайн
and4027 21 июля 2013 18:48
CUE:

REM DATE 1989
REM COMMENT Rip by gitarist
TITLE "Super Guitar Dancing"
PERFORMER "Ricky King"
FILE "01 - Side 1.flac" WAVE
TRACK 01 AUDIO
TITLE "Hello, Hello-A"
INDEX 01 00:00:00
TRACK 02 AUDIO
TITLE "Lambada"
INDEX 01 03:21:00
TRACK 03 AUDIO
TITLE "Blue Moonlight"
INDEX 01 06:54:00
TRACK 04 AUDIO
TITLE "Danser, Danser, Danser"
INDEX 01 10:30:00
TRACK 05 AUDIO
TITLE "On Silver Wings"
INDEX 01 13:59:00
TRACK 06 AUDIO
TITLE "Denise, mon Amour"
INDEX 01 17:45:00
TRACK 07 AUDIO
TITLE "Yalo, Yalo"
INDEX 01 21:10:00
FILE "02 - Side 2.flac" WAVE
TRACK 01 AUDIO
TITLE "Teresa (una Stella ti darei)"
INDEX 01 00:00:00
TRACK 02 AUDIO
TITLE "Rock'n Roll Is King"
INDEX 01 03:42:00
TRACK 03 AUDIO
TITLE "Oasis"
INDEX 01 06:04:00
TRACK 04 AUDIO
TITLE "Pathetique"
INDEX 01 09:25:00
TRACK 05 AUDIO
TITLE "Cordoba"
INDEX 01 12:17:00
TRACK 06 AUDIO
TITLE "Avalon"
INDEX 01 15:37:00
TRACK 07 AUDIO
TITLE "Neverending Dreams"
INDEX 01 20:01:00
Офлайн
Дикий Кот 14 ноября 2015 16:51
"Файл удален". Перезалейте, пожалуйста!
Офлайн
plastinka 15 ноября 2015 22:46
Цитата: Дикий Кот
"Файл удален". Перезалейте, пожалуйста!

Перезалили!
Информация
Посетители, находящиеся в группе Гость, не могут оставлять комментарии к данной публикации.
  • Яндекс.Метрика