Fausto Papetti - Golden Fausto Papetti. Fascinating Saxophone (1972)


Название винила: Golden Fausto Papetti. Fascinating Saxophone
Исполняет: Fausto Papetti
Жанр: Easy Listening
Выпущено в: 1972
Композиций: 14
Пластинок: 1
Фирма: Globe (Made in Japan)
Номер по каталогу: SWG-7108

Формат: wav 24bit 88,2kHz (image)
Вес: 838 Мб

Список композиций:
A1. Shiritaku?Naino
A2. Kohkotsu No Blues
A3. Kiri No Kanata Ni
A4. Aitakute Aitakute
A5. Omoide
A6. Yume Wa Yoru Hiraku
A7. Yoru Wa Koibito
B1. Yoake No Uta
B2. Solenzara
B3. Kimi Koso Waga Inochi
B4. Koigokoro / L’amour C’est Pour Rien
B5. Sekai Wa Futari No Tame Ni
B6. Sans Toi Mamie
B7. Koyubi No Omoide


Скачать wav 24bit 88,2kHz (838 Мб):
Внимание! У Вас нет прав для просмотра скрытого текста.


  • 100

Комментариев 4

Офлайн
spunkerboybr 25 марта 2020 17:59

vitek31rus, большое спасибо за еще один великолепный альбом Fausto Papetti с безупречной записью Vinyl-Never-Dies. Я уверен, что это очень редкий материал!

Офлайн
vitek31rus 25 марта 2020 20:16

Цитата: spunkerboybr

vitek31rus, большое спасибо за еще один великолепный альбом Fausto Papetti с безупречной записью Vinyl-Never-Dies. Я уверен, что это очень редкий материал!

 

Раз попал в сеть-уже не редкий. :)

Офлайн
plastinka 26 марта 2020 18:35

vitek31rus, сейчас его растащат по всем углам. ))

Офлайн
ttolja 28 августа 2020 21:32

FILE "GLOBE SWG-7108.wav" WAVE
TRACK 01 AUDIO
TITLE "??????? / Shiritaku?Naino"
INDEX 01 00:00:00
TRACK 02 AUDIO
TITLE "??????? / Kohkotsu No Blues"
INDEX 01 02:36:00
TRACK 03 AUDIO
TITLE "?????? / Kiri No Kanata Ni"
INDEX 01 05:16:39
TRACK 04 AUDIO
TITLE "?????????? / Aitakute Aitakute"
INDEX 01 08:17:25
TRACK 05 AUDIO
TITLE "???? / Omoide"
INDEX 01 10:51:86
TRACK 06 AUDIO
TITLE "?????? / Yume Wa Yoru Hiraku"
INDEX 01 13:23:24
TRACK 07 AUDIO
TITLE "???? / Yoru Wa Koibito"
INDEX 01 16:25:51
TRACK 08 AUDIO
TITLE "????? / Yoake No Uta"
INDEX 01 19:15:00
TRACK 09 AUDIO
TITLE "?????????? / Solenzara"
INDEX 01 21:54:00
TRACK 10 AUDIO
TITLE "?????? / Kimi Koso Waga Inochi"
INDEX 01 24:15:00
TRACK 11 AUDIO
TITLE "?? / Koigokoro / L’amour C’est Pour Rien"
INDEX 01 27:00:00
TRACK 12 AUDIO
TITLE "????????? / Sekai Wa Futari No Tame Ni"
INDEX 01 29:31:00
TRACK 13 AUDIO
TITLE "????????? / Sans Toi Mamie"
INDEX 01 31:59:00
TRACK 14 AUDIO
TITLE "?????? / Koyubi No Omoide"
INDEX 01 34:43:00

Информация
Посетители, находящиеся в группе Гость, не могут оставлять комментарии к данной публикации.
  • Яндекс.Метрика