Paradise Express (1978)

Paradise Express (1978)


Название винила: Paradise Express
Исполняет: Paradise Express
Жанр: Funk, Soul, Disco
Выпущено в: 1978
Композиций: 05
Пластинок: 1
Фирма: Fantasy
Номер по каталогу: F 9574 USA

Формат: flac 24 bit/96 kHz
Вес: 634 Мб

Предпрослушка: mp3 cbr 320 kbps


Список композиций:
A1 Dance
A2 Poinciana
B1 Reverend Lee
B2 Star In My Life
B3 Hold On



Скачать lossless 24-96:
Внимание! У Вас нет прав для просмотра скрытого текста.


+4

Комментариев 3

Офлайн
kotofey 9 июля 2016 00:22
Кстати, вот cue-файл с разбивкой на треки (только имя файла flac я, как всегда, переиначил):
REM GENRE Disco
PERFORMER "Paradise Express"
TITLE "Paradise Express"
REM DATE 1978
FILE "Paradise Express.flac" WAVE
TRACK 01 AUDIO
TITLE "Dance"
INDEX 01 00:00:00
TRACK 02 AUDIO
TITLE "Poinciana"
INDEX 01 08:20:34
TRACK 03 AUDIO
TITLE "Reverend Lee"
INDEX 01 15:54:41
TRACK 04 AUDIO
TITLE "Star In My Life"
INDEX 01 22:18:35
TRACK 05 AUDIO
TITLE "Hold On"
INDEX 01 28:18:64
Офлайн
sergjazz 9 июля 2016 17:50
[quote=kotofey]Кстати, вот cue-файл с разбивкой на треки (только имя файла flac я, как всегда, переиначил):
[/quote][/quote]

спасибо
Офлайн
robatum 12 июля 2016 00:33
У солистки Ви Энн обалденный вокал!! Это просто звезда!!
Информация
Посетители, находящиеся в группе Гость, не могут оставлять комментарии к данной публикации.
  • Яндекс.Метрика