Sandra - The Long Play (1985)

Sandra - The Long Play (1985)


Информация о пластинке:
Название: The Long Play
Исполнитель: Sandra
Жанр: Disco
Год выпуска: 1985
Количество композиций: 8
Количество пластинок: 1
Фирма: Virgin
Номер по каталогу: 207 356

Информация о файле с оцифровкой:
Формат: mp3 + flac
Качество: cbr 320 kbps + lossless 16/48 kHz
Размер файла: 91,8 + 269,9 Мб

Предпрослушка: mp3 cbr 320 kbps


Список композиций:
Side One
01 In The Heat Of The Night
02 On The Tray (Seven Years)
03 Little Girl
04 You And I
Side Two
05 (I'll Never Be) Maria Magdalena
06 Heartbeat
07 Sisters And Brothers
08 Change Your Mind



Скачать mp3:
без пароля
Внимание! У Вас нет прав для просмотра скрытого текста.


Скачать lossless:
нет рабочей ссылки

+15

Комментариев 8

Офлайн
supermouper 23 ноября 2012 21:04
перекачаю... хотя у меня гдето такая была... yo
она
Офлайн
kozakltd 4 декабря 2012 12:42
Сделал список треков CUE. Сохраните нижеприведенный текст в текстовой файл с расширением .cue и поместите его в папку с музыкой.

REM GENRE Disco Dance
REM DATE 1985
REM PLASTINKA.ORG
REM COMMENT "Virgin Schallplatten GmbH, LC 3098, GER"
PERFORMER "Sandra"
TITLE "The Long Play"
FILE "01 - Side One.flac" WAVE
TRACK 01 AUDIO
TITLE "In The Heat Of The Night"
INDEX 01 00:00:00
TRACK 02 AUDIO
TITLE "On The Tray (Seven Years)"
INDEX 01 05:21:00
TRACK 03 AUDIO
TITLE "Little Girl"
INDEX 01 09:07:00
TRACK 04 AUDIO
TITLE "You And I"
INDEX 01 12:21:00
FILE "02 - Side Two.flac" WAVE
TRACK 05 AUDIO
TITLE "(I'll Never Be) Maria Magdalena"
INDEX 01 00:00:00
TRACK 06 AUDIO
TITLE "Heartbeat"
INDEX 01 05:58:00
TRACK 07 AUDIO
TITLE "Sisters And Brothers"
INDEX 01 10:53:00
TRACK 08 AUDIO
TITLE "Change Your Mind"
INDEX 01 14:18:00
Офлайн
vitalij5 7 мая 2013 12:10
перемещен в архив
Офлайн
lefff5 7 мая 2013 17:25
Цитата: vitalij5
перемещен в архив

Так это хорошо, в архиве лучше сохранится.

А качается всё хорошо.
Очень значимая для СССР 80-х певица. Обнаружил, что у меня в архиве её нет. Срочно качать!
Офлайн
Prapor-j 5 ноября 2013 21:01
Перезалейте пожалуйста.не могу скачать
Офлайн
lefff5 16 декабря 2013 14:01
дополнительная ссылка на мр3:
Скачать с Яндекс-диск
Офлайн
zev_s 4 февраля 2014 19:26
перезалейте, ПЛЗ! или ссылочку!
Офлайн
lefff5 4 февраля 2014 21:59
Цитата: zev_s
перезалейте

Так на Яндексе работает.
Или что перезалить?
Информация
Посетители, находящиеся в группе Гость, не могут оставлять комментарии к данной публикации.
  • Яндекс.Метрика