Русская Коллекция Кассета №1 (MC rip) 1999




Исполнитель: Various
Альбом: Русская Коллекция Кассета №1 (MC rip)
Лейбл: JAM GROUP international (Tschechien)
Год выпуска: 1999
Жанр: Pop
Формат: flac (image) + cue в коментах
Размер: 1,31 Gb
Качество: lossless 24/96 kHz
Наличие сканов в архиве: Да
Источник воспроизведения: Stereo Cassette Deck "Pioneer CT-S640S"
АЦП: EE-MU EM8730
Программа-оцифровщик: Cool Edit Pro 2.0


Содержание:


Сторона А:
01. ВИА "Синяя птица" - Клён
02. ВИА "Весёлые ребята" - Отчего
03. ВИА "Лейся, песня" - Песенка про сапожника
04. ВИА "Синяя птица" - Ты мне не снишься
05. ВИА "Веселые ребята" - Алёшкина любовь
06. ВИА "Цветы" - Честно говоря
07. ВИА "Лейся, песня" - Где же ты была?
08. ВИА "Цветы" - Звёздочка моя ясная
09. ВИА "Пламя" - Вся жизнь впереди

Сторона В:

10. ВИА "Самоцветы" - Добрые приметы
11. ВИА "Поющие сердца" - Вот какая беда
12. ВИА "Ариэль" - Зимы и вёсны
13. ВИА "Поющие гитары" - Синяя песня
14. ВИА "Поющие гитары" - Сумерки
15. ВИА "Ариэль" - Уходишь ты...
16. ВИА "Поющие сердца" - Листья закружат
17. ВИА "Здравствуй, песня" - Не обещай
18. ВИА "Поющие гитары" - Синяя птица (инстр.)

Внимание! У Вас нет прав для просмотра скрытого текста.


  • 100

Комментариев 1

Офлайн
gitarist 15 августа 2019 11:15

Cue

 

REM GENRE Pop
REM DATE 1999
REM COMMENT Digitizing gitarist
PERFORMER "VA"
TITLE "Русская Коллекция Кассета №1"
FILE "Сторона А.flac" WAVE
  TRACK 01 AUDIO
    TITLE "Клён"
    PERFORMER "ВИА ''Синяя птица''"
    INDEX 01 00:00:00
  TRACK 02 AUDIO
    TITLE "Отчего"
    PERFORMER "ВИА''Весёлые ребята''"
    INDEX 01 03:04:39
  TRACK 03 AUDIO
    TITLE "Песенка про сопожника"
    PERFORMER "ВИА ''Лейся, песня''"
    INDEX 01 06:22:59
  TRACK 04 AUDIO
    TITLE "Ты мне не снишься"
    PERFORMER "ВИА ''Синяя птица''"
    INDEX 01 09:29:34
  TRACK 05 AUDIO
    TITLE "Алёшкина любовь"
    PERFORMER "ВИА ''Веселые ребята''"
    INDEX 01 12:34:15
  TRACK 06 AUDIO
    TITLE "Честно говоря"
    PERFORMER "ВИА ''Цветы''"
    INDEX 01 15:00:69
  TRACK 07 AUDIO
    TITLE "Где же ты была?"
    PERFORMER "ВИА ''Лейся, песня''"
    INDEX 01 18:52:19
  TRACK 08 AUDIO
    TITLE "Звёздочка моя ясная"
    PERFORMER "ВИА ''Цветы''"
    INDEX 01 22:24:38
  TRACK 09 AUDIO
    TITLE "Вся жизнь впереди"
    PERFORMER "ВИА ''Пламя''"
    INDEX 01 27:39:07
FILE "Сторона В.flac" WAVE
  TRACK 10 AUDIO
    TITLE "Добрые приметы"
    PERFORMER "ВИА ''Самоцветы''"
    INDEX 01 00:00:00
  TRACK 11 AUDIO
    TITLE "Вот какая беда"
    PERFORMER "ВИА ''Поющие сердца''"
    INDEX 01 03:36:34
  TRACK 12 AUDIO
    TITLE "Зимы и вёсны"
    PERFORMER "ВИА ''Ариэль''"
    INDEX 01 06:57:56
  TRACK 13 AUDIO
    TITLE "Синяя песня"
    PERFORMER "ВИА ''Поющие гитары''"
    INDEX 01 10:04:57
  TRACK 14 AUDIO
    TITLE "Сумерки"
    PERFORMER "ВИА ''Поющие гитары''"
    INDEX 01 12:52:15
  TRACK 15 AUDIO
    TITLE "Уходишь ты. . ."
    PERFORMER "ВИА ''Ариэль''"
    INDEX 01 17:04:35
  TRACK 16 AUDIO
    TITLE "Листья закружат"
    PERFORMER "ВИА ''Поющие сердца''"
    INDEX 01 21:46:37
  TRACK 17 AUDIO
    TITLE "Не обещай"
    PERFORMER "ВИА ''Здравствуй, песня''"
    INDEX 01 25:00:37
  TRACK 18 AUDIO
    TITLE "Синяя птица (инстр.)"
    PERFORMER "ВИА ''Поющие гитары''"
    INDEX 01 28:20:22
[Ответить]

--------------------
http://retrovinylcdmc.ucoz.org/
Информация
Посетители, находящиеся в группе Гость, не могут оставлять комментарии к данной публикации.
  • Яндекс.Метрика