The Cars - Heartbeat City (1984)

The Cars - Heartbeat City (1984)


Информация о пластинке:
Название: Heartbeat City
Исполнитель: The Cars
Жанр: Pop Rock, Synth-pop
Год выпуска: 1984
Количество композиций: 10
Количество пластинок: 1
Фирма: Elektra (Germany)
Номер по каталогу: 960 296-1

Информация о файле с оцифровкой:
Формат: flac (image A+B sides + cue)
Качество: 16 bit /44.1 kHz
Размер файла: 280 Мб (3% на восстановление)

Предпрослушка: mp3 cbr 320 kbps


Список композиций:
01. Hello Again
02. Looking For Love
03. Magic
04. Drive
05. Stranger Eyes
06. It's Not The Night
07. You Might Think
08. Why Can't I Have You
09. I Refuse
10. Heartbeat City


Скачать 16-44.1 (280 Мб):
Внимание! У Вас нет прав для просмотра скрытого текста.


Pop
0

Комментариев 1

Офлайн
GEMIA 19 января 2014 14:22
- Вот правильный cPlay laughing

REM GENRE "New Wave"
REM DATE "1984"
REM COMMENT "ELEKTRA [960 296-1]"
TITLE "Heartbeat City"
PERFORMER "THE CARS"
FILE "SIDE A.flac" WAVE
TRACK 01 AUDIO
TITLE "Hello Again"
INDEX 01 00:00:00
TRACK 02 AUDIO
TITLE "Looking For Love"
INDEX 01 03:47:14
TRACK 03 AUDIO
TITLE Magic
INDEX 01 07:38:65
TRACK 04 AUDIO
TITLE Drive
INDEX 01 11:36:01
TRACK 05 AUDIO
TITLE "Stranger Eyes"
INDEX 01 15:30:19
FILE "SIDE B.flac" WAVE
TRACK 06 AUDIO
TITLE "You Might Think"
INDEX 01 00:00:00
TRACK 07 AUDIO
TITLE "It's Not The Night"
INDEX 01 03:04:74
TRACK 08 AUDIO
TITLE "Why Can't I Have You"
INDEX 01 06:53:54
TRACK 09 AUDIO
TITLE "I Refuse"
INDEX 01 10:57:35
TRACK 10 AUDIO
TITLE "Heartbeat City"
INDEX 01 14:13:19
Информация
Посетители, находящиеся в группе Гость, не могут оставлять комментарии к данной публикации.
  • Яндекс.Метрика