Frank Sinatra – Portrait Of Sinatra: Forty Songs From The Life Of A Man (1977)


Название: Portrait Of Sinatra: Forty Songs From The Life Of A Man (1977)
Исполняет: Frank Sinatra
Жанр: Jazz
Композиций: 40
Фирма: Reprise Records (2 х Vinyl, LP, Compilation, Gatefold)
Номер по каталогу: K 64039
Страна: UK
Время: 02:09:54
Формат: image+.cue
Файл раздачи: flac 24/192
Вес: 4,87ГБ








Формат: FLAC, image+.cue, 24bit/192kHz
Вес: 4,87ГБ

Внимание! У Вас нет прав для просмотра скрытого текста.


  • 100

Комментариев 2

Офлайн
mvkr 26 апреля 2020 10:25

B Frank Sinatra – Portrait Of Sinatra (1977).cue исправил (ошибка TRACK 01, TRACK 02)

[spoiler][/spoiler]REM GENRE "Jazz"
REM DATE "1977"
REM COMMENT "2 х Vinyl, LP, Compilation, Gatefold, Reprise Records – K 64039, UK"
PERFORMER "Frank Sinatra"
TITLE "Portrait Of Sinatra: Forty Songs From The Life Of A Man"
FILE "B Frank Sinatra – Portrait Of Sinatra (1977).flac" WAVE
TRACK 01 AUDIO
TITLE "B1 All The Way"
INDEX 01 00:00:00
TRACK 02 AUDIO
TITLE "B2 Strangers In The Night"
INDEX 01 03:33:45
TRACK 03 AUDIO
TITLE "B3 Didn't We"
INDEX 01 06:10:36
TRACK 04 AUDIO
TITLE "B4 Come Fly With Me"
INDEX 01 09:06:48
TRACK 05 AUDIO
TITLE "B5 Second Time Around"
INDEX 01 12:16:43
TRACK 06 AUDIO
TITLE "B6 In The Wee Small Hours Of The Morning"
INDEX 01 15:19:14
TRACK 07 AUDIO
TITLE "B7 Bad, Bad Leroy Brown"
INDEX 01 18:02:15
TRACK 08 AUDIO
TITLE "B8 Softly, As I Leave You"
INDEX 01 20:51:40
TRACK 09 AUDIO
TITLE "B9 Cycles"
INDEX 01 23:41:49
TRACK 10 AUDIO
TITLE "B10 Send In The Clowns"
INDEX 01 26:50:49

Офлайн
digital 28 апреля 2020 06:22

mvkr

Благодарю за помощь!

Приношу свои извинения за ошибку!

Информация
Посетители, находящиеся в группе Гость, не могут оставлять комментарии к данной публикации.
  • Яндекс.Метрика