VA - Танцуем без перерыва (1973)

VA - Танцуем без перерыва (1973)


Информация о пластинке:
Название: Танцуем без перерыва
Исполнитель: V/A
Жанр: Instrumental, Easy Listening
Год выпуска: 1973
Количество композиций: 19
Количество пластинок: 1
Фирма: Мелодия
Номер по каталогу: 33СМ 04041-42

Информация о файле с оцифровкой:
Формат: flac
Качество: lossless 24 bit/96 kHz + 16bit/ 44KHz Non Stop
Размер файла: 1 GB + 314 MB

Предпрослушка: mp3 cbr 320 kbps


Список композиций:
01. JAMES LAST ORCHESTRA – Medley
02. PAUL MAURIAT & HIS ORCHESTRA - Isadora
03. JAMES LAST ORCHESTRA – Secret Love
04. JAMES LAST ORCHESTRA – Perfidia
05. LOS TIJUANA MARIACHIS – She Said No!
06. PAUL MAURIAT & HIS ORCHESTRA – Moulins de mon Coeur
07. LOS TIJUANA MARIACHIS – Cuthbert
08. LOS TIJUANA MARIACHIS – Ambiente
09. KAI WARNER ORCHESTRA – Medley Tanz Tanz Tanz Venus
10. ANDRE KOSTELANETZ ORCHESTRA - Lady Madonna
11. JAMES LAST ORCHESTRA - Kiss Me, Honey, Honey Kiss Me
12. HUGO STRASSER ORCHESTRA - In The Summertime
13. HUGO STRASSER ORCHESTRA - Let It Be
14. HUGO STRASSER ORCHESTRA - Up Around The Bend
15. PAUL MAURIAT ORCHESTRA - Eleonor Rigby
16. PAUL MAURIAT ORCHESTRA - Mrs. Robinson
17. HUGO STRASSER ORCHESTRA - Raindrops Keep Falling On My Head
18. JAMES LAST ORCHESTRA - Let The Sunshine In
19. JAMES LAST ORCHESTRA - The Party is Over



Скачать lossless 24-96 :
Внимание! У Вас нет прав для просмотра скрытого текста.


Скачать lossless 16-44 Non Stop от Rifkat :
Внимание! У Вас нет прав для просмотра скрытого текста.


+10

Комментариев 11

Офлайн
Rifkat 15 мая 2014 22:26
Спасибо - запись очень чистая - диск NM, но нарезан (да и зачем нон-стоп резать?) неверно - границы треков на 9 сек смещены и начала 9 сек. пропало :(

Каналы тоже, возможно, поменяны местами.
Офлайн
sergjazz 16 мая 2014 17:53
каналы все на месте.вы что то путаете smile
оцифровку делал по заказу, на треки порезал чтобы человеку удобно было нужный трек найти, так что нон-стоп уже не получиться сделать
Офлайн
Rifkat 16 мая 2014 18:51
Начала нет - нескольких секунд - прослушайте 1й трек. Нон-стоп делается обратным склеиванием в редакторе :)
Офлайн
sergjazz 16 мая 2014 19:18
Цитата: Rifkat
Начала нет - нескольких секунд - прослушайте 1й трек. Нон-стоп делается обратным склеиванием в редакторе :)

так вот в чем и беда non stop можно сделать, но начала не вернуть, нет пластинки уже у меня, отдал заказчику
Офлайн
Rifkat 17 мая 2014 15:04
Я приклеил начало с другого источника, очень качественно. Вернул нон-стоп, собрав все воедино. Но в 16/44.1. Если есть интерес - могу прислать файл.
Офлайн
lukkon 17 мая 2014 23:22
Почему-то трубы местами идут с искажением.
Или это только на прослушке?
Офлайн
Rifkat 18 мая 2014 00:05
Надо все внимательно прослушать. В редакторе смотрел - ограничений по амплитуде не было. Возможно, так на самом виниле было.
Офлайн
sergjazz 18 мая 2014 16:12
Цитата: Rifkat
Я приклеил начало с другого источника, очень качественно. Вернул нон-стоп, собрав все воедино. Но в 16/44.1. Если есть интерес - могу прислать файл.

Можно выложить здесь. чтобы и такая версия была
Офлайн
fazer 18 июня 2014 23:47
Ссылки не работают.
Офлайн
lefff5 21 июня 2014 16:02
Цитата: fazer
Ссылки не работают.

Нет, работают.

А, это Вы, наверное, "Спасибо" не нажали.
Офлайн
Grigorijg 26 декабря 2015 09:18
Для VA - Мелодии и ритмы Танцуем без перерыва (1973)16-44 Non Stop Rifkat.rar составил Куе (с точностью до секунды) в транслите для записи AudioCD

TITLE "Tancuem Bez Pereryva"
PERFORMER "Melodija"
FILE "Мелодии и ритмы 1974 - Танцуем без перерыва.flac" WAVE
TRACK 01 AUDIO
TITLE "Medley: a. Skokiaan (August Musarurgwa) ©1966 b. Stars In Your Eyes (Gabriel Ruiz) ©1966 c. Das leben ist Wunderbar (James Last) ©1966 (Skokian, Zvjozdy V Tvoih Glazah, Zhizn' Prekrasna)"
PERFORMER "JAMES LAST ORCHESTRA"
INDEX 01 00:00:00
TRACK 02 AUDIO
TITLE "Isadora (Geoff Stephens / John Shakespeare) ©1970 (Izadora)"
PERFORMER "PAUL MAURIAT ORCHESTRA"
INDEX 01 04:16:00
TRACK 03 AUDIO
TITLE "Secret Love (Sammy Fain / Paul F.Webster) ©1968 (Tajnaja Ljubov')"
PERFORMER "JAMES LAST ORCHESTRA"
INDEX 01 07:18:00
TRACK 04 AUDIO
TITLE "Perfidia (Alberto Dominguez) ©1968 (Nevernost')"
PERFORMER "JAMES LAST ORCHESTRA"
INDEX 01 10:06:00
TRACK 05 AUDIO
TITLE "She Said No! () ©1970 (Ona skazala NET)"
PERFORMER "LOS TIJUANA MARIACHIS"
INDEX 01 12:14:00
TRACK 06 AUDIO
TITLE "Moulins de mon Coeur (Michel Legrand) ©1970 (Mir Tvoej Fantazii)"
PERFORMER "PAUL MAURIAT ORCHESTRA"
INDEX 01 14:41:00
TRACK 07 AUDIO
TITLE "Cuthbert () ©1970 (Kasbert)"
PERFORMER "LOS TIJUANA MARIACHIS"
INDEX 01 17:30:00
TRACK 08 AUDIO
TITLE "Ambiente () ©1970 (Okruzhajushhaja Sreda)"
PERFORMER "LOS TIJUANA MARIACHIS"
INDEX 01 19:32:00
TRACK 09 AUDIO
TITLE "Medley: Tanz Tanz Tanz / Venus (Last / Van Leeven) ©1970 (Davaj Potancuem, Venera)"
PERFORMER "KAI WARNER ORCHESTRA"
INDEX 01 21:43:00

TRACK 10 AUDIO
TITLE "Lady Madonna (John Lennon / Paul McCartney) ©1968 (Ledi Madonna)"
PERFORMER "ANDRE KOSTELANETZ ORCHESTRA"
INDEX 01 24:50:00
TRACK 11 AUDIO
TITLE "Kiss Me, Honey, Honey Kiss Me (Albon Timothy / Michael Julien) ©1968 (Celuj Menja, Milaja)"
PERFORMER "JAMES LAST ORCHESTRA"
INDEX 01 26:54:00
TRACK 12 AUDIO
TITLE "In The Summertime (Ray Dorset) ©1971 (V Letnjuju Poru)"
PERFORMER "HUGO STRASSER ORCHESTRA"
INDEX 01 29:20:00
TRACK 13 AUDIO
TITLE "Let It Be (John Lennon / Paul McCartney) ©1971 (Pust' Budet Tak)"
PERFORMER "HUGO STRASSER ORCHESTRA"
INDEX 01 31:27:00
TRACK 14 AUDIO
TITLE "Up Around The Bend (John Fogerty) ©1971 (Vokrug Orkestra)"
PERFORMER "HUGO STRASSER ORCHESTRA"
INDEX 01 33:33:00
TRACK 15 AUDIO
TITLE "Eleonor Rigby (John Lennon / Paul McCartney) ©1968"
PERFORMER "PAUL MAURIAT ORCHESTRA"
INDEX 01 36:23:00
TRACK 16 AUDIO
TITLE "Mrs. Robinson (Paul Simon) ©1968"
PERFORMER "PAUL MAURIAT ORCHESTRA"
INDEX 01 38:33:00
TRACK 17 AUDIO
TITLE "Raindrops Keep Falling On My Head (Burt Bacharach) ©1971 (Kapli Dozhdja Prodolzhajut Padat' Na Moju Golovu)"
PERFORMER "HUGO STRASSER ORCHESTRA"
INDEX 01 41:33:00
TRACK 18 AUDIO
TITLE "Let The Sunshine In (A.MacDermot) © 1969 (Daj Dostup Solncu)"
PERFORMER "JAMES LAST ORCHESTRA"
INDEX 01 44:00:00
TRACK 19 AUDIO
TITLE "The Party is Over (James Last) ©1971 (Vecherinka Konchilas')"
PERFORMER "JAMES LAST ORCHESTRA"
INDEX 01 46:18:00
Информация
Посетители, находящиеся в группе Гость, не могут оставлять комментарии к данной публикации.
  • Яндекс.Метрика