Orchester Bruno Bertone - Goldene Instrumental Welthits [2LP]

Orchester Bruno Bertone - Goldene Instrumental Welthits [2LP]


Информация о пластинке:
Название: Goldene Instrumental Welthits (2-LP vinyl)
Исполнитель: Orchester Bruno Bertone
Жанр: Instrumental
Год выпуска: 19??
Количество композиций: 24
Количество пластинок: 2
Фирма: Delta
Номер по каталогу: DA 2029

Информация о файле с оцифровкой:
Формат: mp3 + flac
Качество: cbr 320 kbps + lossless 16/48 kHz
Размер файла: размер 166,4 + 438,2 Мб

Предпрослушка: mp3 cbr 320 kbps


Список композиций:
LP 1:
Seite A:
01 Let It Be
02 Mammy Blue
03 La Paloma
04 Oxygene IV
05 Bilitis
06 Star Wars
Seite B:
07 Remember
08 Nadia's Theme
09 Where Is Your Heart
10 Dim The Light
11 The House Of The Rising Sun
12 La Reve

LP 2:
Seite C:
13 Melissa
14 Spiel Mir Das Lied Vom Tod
15 Greenleaves
16 Volare
17 High Noon
18 Guantanamera
Seite D:
19 Magic Fly
20 Ti Amo
21 Muss I Denn
22 Telstar
23 Zorba's Dance
24 Lara's Theme



Скачать mp3 (166,4 Мб):
Пароль к архиву: r4017
Внимание! У Вас нет прав для просмотра скрытого текста.


Скачать lossless 16-48 (438,2 Мб):
Пароль к архиву: lebru
Внимание! У Вас нет прав для просмотра скрытого текста.


+5

Комментариев 5

Офлайн
PROMS 24 ноября 2012 08:49
gitarist
Подскажите, а Вы не планируете, случайно, выложить куй?
Офлайн
gitarist 24 ноября 2012 11:46
Цитата: PROMS
gitarist
Подскажите, а Вы не планируете, случайно, выложить куй?


Честно скажу, незнаю как его делать, да и вникать не очень-то хочется. Ну, а МП3 я режу вручную на треки.
--------------------
http://vinylcollection.ucoz.ru/
Офлайн
kozakltd 1 декабря 2012 12:50
Сделал список треков CUE. Сохраните нижеприведенный текст в текстовой файл с расширением .cue и поместите его в папку с музыкой.

REM GENRE Instrumental
REM PLASTINKA.ORG
REM COMMENT "Delta Music, DA 2029, GER"
PERFORMER "Bruno Bertone Orchester"
TITLE "Goldene Instrumental Welthits"
FILE "01 - Seite A.flac" WAVE
TRACK 01 AUDIO
TITLE "Let It Be"
INDEX 01 00:00:00
TRACK 02 AUDIO
TITLE "Mammy Blue"
INDEX 01 03:29:00
TRACK 03 AUDIO
TITLE "La Paloma"
INDEX 01 06:41:00
TRACK 04 AUDIO
TITLE "Oxygene IV"
INDEX 01 10:06:00
TRACK 05 AUDIO
TITLE "Bilitis"
INDEX 01 13:14:00
TRACK 06 AUDIO
TITLE "Star Wars"
INDEX 01 16:37:00
FILE "02 - Seite B.flac" WAVE
TRACK 07 AUDIO
TITLE "Remember"
INDEX 01 00:00:00
TRACK 08 AUDIO
TITLE "Nadia's Theme"
INDEX 01 03:13:00
TRACK 09 AUDIO
TITLE "Where Is Your Heart"
INDEX 01 06:15:00
TRACK 10 AUDIO
TITLE "Dim The Light"
INDEX 01 08:52:00
TRACK 11 AUDIO
TITLE "The House Of The Rising Sun"
INDEX 01 12:13:00
TRACK 12 AUDIO
TITLE "La Reve"
INDEX 01 14:36:00
FILE "03 - Seite C.flac" WAVE
TRACK 13 AUDIO
TITLE "Melissa"
INDEX 01 00:00:00
TRACK 14 AUDIO
TITLE "Spiel Mir Das Lied Vom Tod"
INDEX 01 03:20:00
TRACK 15 AUDIO
TITLE "Greenleaves"
INDEX 01 06:39:00
TRACK 16 AUDIO
TITLE "Volare"
INDEX 01 09:35:00
TRACK 17 AUDIO
TITLE "High Noon"
INDEX 01 12:04:00
TRACK 18 AUDIO
TITLE "Guantanamera"
INDEX 01 14:46:00
FILE "04 - Seite D.flac" WAVE
TRACK 19 AUDIO
TITLE "Magic Fly"
INDEX 01 00:00:00
TRACK 20 AUDIO
TITLE "Ti Amo"
INDEX 01 03:33:00
TRACK 21 AUDIO
TITLE "Muss I Denn"
INDEX 01 06:16:00
TRACK 22 AUDIO
TITLE "Telstar"
INDEX 01 08:50:00
TRACK 23 AUDIO
TITLE "Zorba's Dance"
INDEX 01 11:28:00
TRACK 24 AUDIO
TITLE "Lara's Theme"
INDEX 01 14:30:00
Офлайн
gitarist 1 декабря 2012 13:15
Спасибо за куй!
--------------------
http://vinylcollection.ucoz.ru/
Офлайн
PROMS 22 апреля 2015 19:02
Спасибо за куй!
Информация
Посетители, находящиеся в группе Гость, не могут оставлять комментарии к данной публикации.
  • Яндекс.Метрика