Последние комментарии

Офлайн
martynov75 11 ноября 2020 17:24

С. Рахманинов Колокола, поэма для оркестра, хора и солистов, соч. 35 А.Большаков, К.Кондрашин (1963)

Куэ файл (только название файла я изменил, поэтому скорректируйте):

 

REM GENRE Classical
REM DATE 2005
PERFORMER "Sergei Rachmaninov"
TITLE "The Bells"
FILE "Рахманинов Колокола (Кондрашин).wav" WAVE
TRACK 01 AUDIO
TITLE "The Bells - allegro ma non troppo"
FLAGS DCP
INDEX 00 00:00:00
INDEX 01 00:02:00
TRACK 02 AUDIO
TITLE "The Bells - Lento"
FLAGS DCP
INDEX 00 06:28:00
INDEX 01 06:32:00
TRACK 03 AUDIO
TITLE "The Bells - preto"
FLAGS DCP
INDEX 00 16:24:33
INDEX 01 16:28:33
TRACK 04 AUDIO
TITLE "The Bells - Lento lugubre"
FLAGS DCP
INDEX 00 24:00:40
INDEX 01 24:04:40

Офлайн
martynov75 8 ноября 2020 23:20

Искусство Сергея Кусевицкого (1972) [2LP]

Можно ли восстановить ссылки?

Офлайн
martynov75 3 октября 2020 10:04

С.Рахманинов - Концерт №4 G-moll для ф-но c орекстром

Файл куэ с разбивкой 4-го концерта на треки:

 

REM GENRE Classical
REM DATE 1934 & 1941
PERFORMER "Рахманинов"
TITLE "Концерт №4 соль минор & Рапсодия на тему Паганини"
FILE "01 Concerto No.4 for Piano and Orchestra in G minor, op.40.flac" WAVE
TRACK 01 AUDIO
TITLE "Концерт №4 соль минор - I. Allegro vivace (alla breve)"
INDEX 01 00:00:00
TRACK 02 AUDIO
TITLE "II. Largo"
INDEX 01 09:35:00
TRACK 03 AUDIO
TITLE "III. Allegro Vivace"
INDEX 01 15:28:57
FILE "02 Rhapsody on Pagnini's Theme, op.43.flac" WAVE
TRACK 04 AUDIO
TITLE "Рапсодия на тему Паганини"
INDEX 01 00:00:00

Офлайн
martynov75 11 октября 2015 14:48

П.Чайковский 1 Концерт для ф-но с орк. Си бемоль минор,соч. 23

Хотелось бы отметить, что на сайте есть другой вариант оцифровки, с более позднего издания в стерео. Но - изначально настоящая запись была сделана именно в моно, и вариант со стереозвучанием - это псевдостерео. Рекомендую сравнить обе оцифровки. О вкусах не спорят, но моновариант мне понравился больше.
Офлайн
martynov75 8 сентября 2015 14:04

П.Чайковский - Концерт для скрипки с оркестром D-dur, op.35

Желающим cue-файл:

PERFORMER "Давид Ойстрах, Кирилл Кондрашин"
TITLE "П.Чайковский - Концерт для скрипки с оркестром ре мажор, соч.35"
FILE "Чайковский - Скрипичный концерт (Ойстрах).flac" WAVE
TRACK 01 AUDIO
TITLE "Allegro moderato. Moderato assai"
INDEX 01 00:00:00
TRACK 02 AUDIO
TITLE "Canzonetta. Andante"
INDEX 01 18:24:00
TRACK 03 AUDIO
TITLE "Finale. Allegro vivacissimo"
INDEX 01 25:20:30
Офлайн
martynov75 8 июня 2014 22:42

Евгений Мравинский (Yevgeni Mravinsky)

Жаль, что не в lossless.
Офлайн
martynov75 9 марта 2013 20:14

Играет Родион Азархин (контрабас) (1977)

Жаль, конечно, что моно, но всё равно: изумительно. Никогда бы не подумал, что контрабас может быть настолько лиричен.
Офлайн
martynov75 14 апреля 2012 18:21

Олег Крыса (скрипка) - Скрипичная музыка (1978)

Не слушал раньше Бруха. И, как оказалось, напрасно.
  • Яндекс.Метрика