Последние комментарии

Офлайн
bav00 10 мая 2020 10:40

Toto Cutugno - Voglio l'anima (1979)

cue:

REM GENRE Pop
REM DATE 1980
REM Label Carosello, Italy
PERFORMER "Toto Cutugno"
TITLE "Voglio L'anima"
FILE "Toto Cutugno - Voglio L'anima.wav" WAVE
TRACK 01 AUDIO
TITLE "Solo Noi"
PERFORMER "Toto Cutugno"
INDEX 01 00:00:00
TRACK 02 AUDIO
TITLE "Voglio L'anima"
PERFORMER "Toto Cutugno"
INDEX 01 04:14:00
TRACK 03 AUDIO
TITLE "Ma..."
PERFORMER "Toto Cutugno"
INDEX 01 08:02:00
TRACK 04 AUDIO
TITLE "Una Serata Come Tante"
PERFORMER "Toto Cutugno"
INDEX 01 11:46:00
TRACK 05 AUDIO
TITLE "'Na Parole"
PERFORMER "Toto Cutugno"
INDEX 01 14:57:00
TRACK 06 AUDIO
TITLE "Aeroporto Kennedy"
PERFORMER "Toto Cutugno"
INDEX 01 17:51:00
TRACK 07 AUDIO
TITLE "Amore No"
PERFORMER "Toto Cutugno"
INDEX 01 22:07:00
TRACK 08 AUDIO
TITLE "Soli"
PERFORMER "Toto Cutugno"
INDEX 01 27:17:00
TRACK 09 AUDIO
TITLE "Liberi"
PERFORMER "Toto Cutugno"
INDEX 01 31:32:00
TRACK 10 AUDIO
TITLE "Se Vai Vai"
PERFORMER "Toto Cutugno"
INDEX 01 35:46:00
TRACK 11 AUDIO
TITLE "Donna Donna Mia"
INDEX 01 39:37:00

 

  • Яндекс.Метрика