Последние комментарии

Офлайн
mlkn658776jvg 22 марта 2020 19:39

Fausto Papetti - Golden Fausto Papetti Vol.3 (1971)

boyhunt, родной CUE тоже вполне рабочий но сохранён в кодировке, которую фубар не хочет понимать. Открываем в Блокноте родной CUE и в меню Файл выбираем Сохранить как... Или Ctrl+Shift+S

А ниже выбираем тип кодировки ANSI или UTF-8 со спецификацией например... Мне уже второй раз попалась такая засада. В первый раз не помню кто оцифровщик. 

Офлайн
mlkn658776jvg 18 февраля 2020 12:44

Caravelli - Simon And Garfunkel's Greatest Hits (1971)

val2015,

 

REM DATE 1971
REM GENRE Easy Listening
PERFORMER "Caravelli"
TITLE "Simon And Garfunkel's Greatest Hits"
FILE "01 - Side 1.flac" WAVE
TRACK 01 AUDIO
TITLE "Sound Of Silence"
INDEX 01 00:00:00
TRACK 02 AUDIO
TITLE "Mrs. Robinson"
INDEX 01 02:41:00
TRACK 03 AUDIO
TITLE "Scarborough Fair"
INDEX 01 05:30:00
TRACK 04 AUDIO
TITLE "The 50th Street Bridge Song"
INDEX 01 09:03:00
TRACK 05 AUDIO
TITLE "Homeward Bound"
INDEX 01 11:21:00
TRACK 06 AUDIO
TITLE "El Condor Pasa"
INDEX 01 13:48:00
FILE "02 - Side 2.flac" WAVE
TRACK 07 AUDIO
TITLE "Bridge Over Troubled Water"
INDEX 01 00:00:00
TRACK 08 AUDIO
TITLE "The Boxer"
INDEX 01 03:24:00
TRACK 09 AUDIO
TITLE "Cecilia"
INDEX 01 06:16:00
TRACK 10 AUDIO
TITLE "Fakin' It"
INDEX 01 08:40:00
TRACK 11 AUDIO
TITLE "Old Friend"
INDEX 01 11:28:00
TRACK 12 AUDIO
TITLE "A Hazy Shade Of Winter"
INDEX 01 13:56:00

Офлайн
mlkn658776jvg 8 февраля 2020 23:30

Alive 'N Kickin' (1970)

"Пока нет особых пожеланий буду предлагать на мой взгляд интересные и довольно редкие альбомы, которых к примеру нет на рутрекере".

 

Класс! 

Офлайн
mlkn658776jvg 8 февраля 2020 23:26

Тangerine Dream - Atem (1973)

Спасибо! Звук нравится! Заменяю постепенно свои Тangerine Dream на эти оцифровки.

А обложки на этом Box Set чёрно-белые что-ли или специально так делаете? В Сети проблематично найти качественные сканы, особенно яблоки, да ещё чтобы всё соответствовало... А без них и коллекция вроде как неполноценная.

Офлайн
mlkn658776jvg 4 февраля 2020 18:26

Perez Prado And His Orchestra - Mambo Jambo (1970)

spunkerboybr, "я надеюсь, вам понравится моя запись Ray Conniff's World Of Hits"

 

ПОНРАВИЛАСЬ! Огромное спасибо! Заняла достойное место в моей коллекции!

Офлайн
mlkn658776jvg 20 января 2020 13:37

Georgie Auld - In Japan (1964)

Иероглифы почему-то не отобразились, пришлось стереть крякозяблы...

 

REM GENRE Bop
REM DATE 1964
PERFORMER "Georgie Auld"
TITLE "Georgie Auld In Japan"
REM COMMENT Оцифровка vitek31rus, Columbia PS-1075-N, Japan
FILE "COLUMBIA PS-1075-N.wav" WAVE
TRACK 01 AUDIO
TITLE "Mea Culpa"
INDEX 01 00:12:00
TRACK 02 AUDIO
TITLE "Una Sera Di Tokio"
INDEX 01 03:03:00
TRACK 03 AUDIO
TITLE "Autumn Leaves"
INDEX 01 06:02:00
TRACK 04 AUDIO
TITLE "La Novia"
INDEX 01 09:27:00
TRACK 05 AUDIO
TITLE "Moon Over Ruined Castle"
INDEX 01 13:26:00
TRACK 06 AUDIO
TITLE "Moonlight Memory"
INDEX 01 16:34:00
TRACK 07 AUDIO
TITLE "Harlem Nocturne"
INDEX 01 19:12:00
TRACK 08 AUDIO
TITLE "Tsume"
INDEX 01 22:32:00
TRACK 09 AUDIO
TITLE "Stardust"
INDEX 01 25:34:00
TRACK 10 AUDIO
TITLE "Danny Boy"
INDEX 01 30:00:00
TRACK 11 AUDIO
TITLE "Manhattan"
INDEX 01 33:24:00
TRACK 12 AUDIO
TITLE "September Song"
INDEX 01 37:11:00

Офлайн
mlkn658776jvg 11 декабря 2019 13:18

Странный Мир - Поёт Аркадий Хоралов (1988)

Цитата: LP_Мания
Ералаш

Не переживай, всё отлично! Так и надо! Спасибо за оцифровку! "ностальгический эффект пластинки" это классно! Жду «Бесконечность»! Благодарствую! Сейчас просмотрел свой каталог а Хоралова-то у меня и нету! Совсем!

Офлайн
mlkn658776jvg 15 августа 2019 09:28

Eva (Csepregi Eva, ex Neoton Familia) - Midnight (1986)

По ссылке появляется архив с: 

Mireille Mathieu - Sentimentalement Votre [LP] - 1977 (lossless) .rar

Исправьте, пожалуйста!

Офлайн
mlkn658776jvg 14 августа 2019 12:08

James Last - This Is James Last (1967)

Спасибо, Андрей! Что бы ты ни выложил - а у меня этого нет нихрена! Вот и этого альбома не было, теперь есть, ночью скачаю! Я весь в предвкушении а так же что сканы искать не надо! Спасибо!

Офлайн
mlkn658776jvg 3 июля 2019 01:30

Зачистка неработающих публикаций

Всё верно и правильно!

Офлайн
mlkn658776jvg 2 июля 2019 01:47

Мельница - Альхимейра (2017) 3LP

Даже понятия не имел что такое. Но полазил по МР3 свалкам, послушал, что-то достойное! Спасибо! Скачаю - послушаю более внимательно. Однозначно останется в моей коллекции!

Офлайн
mlkn658776jvg 29 июня 2019 12:06

Middle Of The Road - Chirpy Chirpy Cheep Cheep, Tweedle Dee Tweedle Dum And Other Great Hits (1971)

Ссылка на другой альбом Middle Of The Road 77 год!

Офлайн
mlkn658776jvg 29 мая 2019 03:13

Михаил Звездинский - Сгорая, плачут свечи (1991)

gitarist, конечно выкладывай, Андрей, без сомнения! Место освобожу на ЯДиске и этот себе скачаю. Спасибо!

Офлайн
mlkn658776jvg 23 мая 2019 18:00

Theo Schumann Combo - Guten Abend Carolina (1971)

Спасибо, Андрей! Скачиваю не раздумывая твои релизы, мне нравится и получаю удовольствие!

  • Яндекс.Метрика