Последние комментарии

Офлайн
val2015 4 мая 2020 19:49

Eloy - Metromania (1984)

Указан лишний трек на первой стороне - A5. Encore

Офлайн
val2015 14 марта 2020 20:28

Pupo - Dolcemente (1979)

Кому нужен cue-file:

 

REM GENRE Pop
REM DATE 1976
PERFORMER "Pupo"
TITLE "Dolcemente (LP 1979)"
FILE "Pupo - Dolcemente _76.wav" WAVE
TRACK 01 AUDIO
TITLE "A1. Come Sei Bella"
INDEX 00 00:00:09
INDEX 01 00:00:00
TRACK 02 AUDIO
TITLE "A2. Ma Cosa? Stato"
INDEX 01 03:10:00
TRACK 03 AUDIO
TITLE "A3. Io"
INDEX 01 07:33:00
TRACK 04 AUDIO
TITLE "A4. La Compagnia"
INDEX 01 11:39:00
TRACK 05 AUDIO
TITLE "A5. La Nostra Avventura"
INDEX 01 15:04:00
TRACK 06 AUDIO
TITLE "Ma Ci Vorremo Bene"
INDEX 01 18:17:00
TRACK 07 AUDIO
TITLE "B2. Ti Scriver?"
INDEX 01 21:40:00
TRACK 08 AUDIO
TITLE "B3. Noi Adesso"
INDEX 01 26:01:00
TRACK 09 AUDIO
TITLE "B4. Ritorner? L'Estate"
INDEX 01 29:28:17
TRACK 10 AUDIO
TITLE "B5. Dolce Bambina"
INDEX 01 33:06:00

Офлайн
val2015 14 марта 2020 14:53

Nini Rosso - Golden Russian Folk Songs (1972)

Вот cue-файл для желающих:

 

REM LABEL VICTOR GLOBE
REM DISCID SWG-7235
REM DATE 1972
REM PERFORMER "Nini Rosso"
REM TITLE "Golden Russian Folk Songs"
FILE "GLOBE SWG-7235.wav" WAVE
TRACK 01 AUDIO
TITLE "Polyushko (Полюшко-поле)"
INDEX 01 00:00:00
TRACK 02 AUDIO
TITLE "Katyusha (Катюша)"
INDEX 01 02:41:00
TRACK 03 AUDIO
TITLE "Troika (Вот мчится тройка)"
INDEX 01 06:03:00
TRACK 04 AUDIO
TITLE "Cossack No Komoriuta (Колыбельная)"
INDEX 01 09:44:00
TRACK 05 AUDIO
TITLE "Yubin Basha No Gyosha Datta (Рассказ ямщика)"
INDEX 01 12:38:00
TRACK 06 AUDIO
TITLE "Kuroi Hitomi No (Во лесочке)"
INDEX 01 16:35:00
TRACK 07 AUDIO
TITLE "Suliko (Сулико)"
INDEX 01 19:57:00
TRACK 08 AUDIO
TITLE "Tomoshibi (Огонек)"
INDEX 01 22:37:00
TRACK 09 AUDIO
TITLE "Akai Sarafan (Красный сарафан)"
INDEX 01 25:38:00
TRACK 10 AUDIO
TITLE "Ryukeinin (Сибирские восходы)"
INDEX 01 28:39:00
TRACK 11 AUDIO
TITLE "Baikal Mizuumi No Hotori (По диким степям Забайкалья)"
INDEX 01 31:16:00
TRACK 12 AUDIO
TITLE "Yube No Kane (Вечерний звон)"
INDEX 01 34:02:00
TRACK 13 AUDIO
TITLE "Moskva Kogai No Yube (Подмосковные вечера)"
INDEX 01 36:13:00
TRACK 14 AUDIO
TITLE "Gyoshonin (Коробейники)"
INDEX 01 38:52:00

Офлайн
val2015 18 февраля 2020 08:22

Caravelli - Simon And Garfunkel's Greatest Hits (1971)

Может, у кого уже есть cue-файл для этого альбома?

Офлайн
val2015 8 февраля 2020 21:09

Billy Vaughn - Golden Billy Vaughn Vol.2 (1968)

Неплохо бы все-таки выкладывать cue-файл для особых ценителей

Офлайн
val2015 27 декабря 2019 08:11

ДДТ - Полная виниловая дискография

plastinka, спасибо за подсказку. Но скачивать файлы по 3 Гб, чтобы потом их конфертировать в формат, который занимает меньше места, просто не стоит времени и усилий. Думал просто, может, у вас есть возможность. А за ответ благодарю)))

Офлайн
val2015 25 декабря 2019 15:14

ДДТ - Полная виниловая дискография

Спасибо за Ваш труд. А можно выложить эти пластинки в формате Flac? У меня, к сожалению нет возможности слушать в DSD-формате, а ДДТ очень люблю и хотелось бы обновить эти альбомы на виниле

Офлайн
val2015 17 ноября 2019 12:06

James Last - Humba Humba A Gogo (1968)

А как насчет cue-файла?



Cue:

REM DATE 1968
PERFORMER "James Last"
TITLE "Humba Humba A Gogo (LP Polydor)"
FILE "01 - Seite 1.flac" WAVE
TRACK 01 AUDIO
TITLE "Potpourri (Trink, Bruderlein Trink)"
PERFORMER "James Last"
INDEX 01 00:00:00
TRACK 02 AUDIO
TITLE "Potpourri (Heut' Komm'n Die Engerl'n Auf Urlaub Nach Wien)"
PERFORMER "James Last"
INDEX 01 03:53:34
TRACK 03 AUDIO
TITLE "Potpourri (Schutt Die Sorgen In Ein Glaschen Wein)"
PERFORMER "James Last"
INDEX 01 06:58:75
TRACK 04 AUDIO
TITLE "Potpourri (O Du Wunderschoner, Deutscher Rhein)"
PERFORMER "James Last"
INDEX 01 08:58:10
TRACK 05 AUDIO
TITLE "Potpourri (Bummel-Petrus)"
PERFORMER "James Last"
INDEX 01 11:46:54
FILE "02 - Seite 2.flac" WAVE
TRACK 06 AUDIO
TITLE "Potpourri (Lustig Ist Das Zigeunerleben)"
PERFORMER "James Last"
INDEX 01 00:00:00
TRACK 07 AUDIO
TITLE "Potpourri (Waidmannsheil)"
PERFORMER "James Last"
INDEX 01 02:12:45
TRACK 08 AUDIO
TITLE "Potpourri (Waldeslust)"
PERFORMER "James Last"
INDEX 01 05:10:00
TRACK 09 AUDIO
TITLE "Potpourri (Kornblumenblau)"
PERFORMER "James Last"
INDEX 01 08:09:59
TRACK 10 AUDIO
TITLE "Potpourri (Im Tiefen Keller)"
PERFORMER "James Last"
INDEX 01 10:51:00

Офлайн
val2015 16 июня 2019 19:05

[24/192] Frank Valdor - Wodka a Gogo (1969)

неплохо бы еще и cue-файл выложить )))

Офлайн
val2015 24 сентября 2018 19:28

Bert Kaempfert Live In London (1975)

Неплохо бы еще выложить cue-файл. Спасибо.

Офлайн
val2015 27 августа 2018 19:09

Simon & Garfunkel - Simon And Garfunkel's Greatest Hits (1972)

А нельзя ли выложить cue-файл?

Офлайн
val2015 15 июня 2018 19:10

The Beatles/Битлз - Русская Коллекция Винила (1986-1993)

2 и 3 диски winrar выдает ошибку при распаковке - проверьте архивы )))



сорри, все нормально - это что-то у меня глюканулою Спасибо за труд!

Офлайн
val2015 1 апреля 2018 19:46

10cc - The Original Soundtrack (1975)

А нельзя ли на yandex выкладывать, а то с onedrive скачать проблематично - скорость никакая!

Офлайн
val2015 8 марта 2018 12:16

Aretha Franklin - The Collection (1986)

JazzBiker, спасибо

Офлайн
val2015 8 марта 2018 09:22

Aretha Franklin - The Collection (1986)

А где третья часть к архиву?

  • Яндекс.Метрика