Последние комментарии

Офлайн
gitarist 23 июля 2019 19:53

VA - Disco Nights (1978)

Цитата: stringer-1
kk6k

 

Блин, ну снова скачал, и распаковал без проблем. Ты посмотри сколько скачало, и у всех всё нормально. Значит я думаю проблема не в архиве, или как.?

--------------------
http://retrovinylcdmc.ucoz.org/
Офлайн
gitarist 23 июля 2019 18:54

VA - Disco Nights (1978)

Цитата: stringer-1

Никак не могу скачать нормально - всегда "неожиданный конец архива".



Ну, это не ко мне. Проверил, всё качается без проблем.

--------------------
http://retrovinylcdmc.ucoz.org/
Офлайн
gitarist 22 июля 2019 20:38

VA - Disco Nights (1978)

Цитата: fathezzz
Egyptian Reggae - Jonathan Richman & The Modern Lovers

 

Вообще-то эта темка звучала в фильме "Малыш на драйве". Сам фильм не совсем в моём вкусе, зато музон там подобран ничего так себе.

--------------------
http://retrovinylcdmc.ucoz.org/
Офлайн
gitarist 21 июля 2019 15:50

[24/192] Marie Laforet - 24 Succes (1974)

Блин, какой-то глюк был. Исправил.

--------------------
http://retrovinylcdmc.ucoz.org/
Офлайн
gitarist 20 июля 2019 18:24

VA - Power Play (1981)

Ок, сейчас сделаю

--------------------
http://retrovinylcdmc.ucoz.org/
Офлайн
gitarist 20 июля 2019 18:08

VA - Power Play (1981)

Есть готовая оцифровка винила, только качество 16/48 kHz. Если устраивает могу залить.

--------------------
http://retrovinylcdmc.ucoz.org/
Офлайн
gitarist 20 июля 2019 17:54

VA - Power Play (1981)

Я всё равно не понимаю. Покажите фото обложки.

Этот что-ли?

--------------------
http://retrovinylcdmc.ucoz.org/
Офлайн
gitarist 20 июля 2019 17:35

VA - Power Play (1981)

Пишите на русском языке. По вашей личной просьбе я залил этот винил. Что ещё вы хотите, я не понимаю?.

--------------------
http://retrovinylcdmc.ucoz.org/
Офлайн
gitarist 20 июля 2019 06:31

VA - Power Play (1981)

cue:
REM GENRE Pop
REM DATE 1981
PERFORMER "VA"
TITLE "Power Play"
FILE "01 - Seite A.flac" WAVE
  TRACK 01 AUDIO
    TITLE "Ye-Si-Ca"
    PERFORMER "Secret Service"
    INDEX 01 00:00:00
  TRACK 02 AUDIO
    TITLE "Felicidad (Margherita)"
    PERFORMER "Boney M."
    INDEX 01 02:56:47
  TRACK 03 AUDIO
    TITLE "Hands Up (Give Me Your Heart)"
    PERFORMER "Ottawan"
    INDEX 01 06:37:40
  TRACK 04 AUDIO
    TITLE "Do You Feel My Love"
    PERFORMER "Eddy Grant"
    INDEX 01 11:29:42
  TRACK 05 AUDIO
    TITLE "Cry To Me"
    PERFORMER "Precious Wilson"
    INDEX 01 14:13:25
  TRACK 06 AUDIO
    TITLE "Leaving On The Midnight Train"
    PERFORMER "Nick Straker Band"
    INDEX 01 16:51:29
  TRACK 07 AUDIO
    TITLE "Blue Moon"
    PERFORMER "Showaddywaddy"
    INDEX 01 19:55:44
  TRACK 08 AUDIO
    TITLE "Celebrate"
    PERFORMER "Lake"
    INDEX 01 22:09:49
  TRACK 09 AUDIO
    TITLE "Marie, Marie"
    PERFORMER "Shakin' Stevens"
    INDEX 01 25:29:20
FILE "02 - Seite B.flac" WAVE
  TRACK 10 AUDIO
    TITLE "Stop The Cavalry"
    PERFORMER "Jona Lewie"
    INDEX 01 00:00:00
  TRACK 11 AUDIO
    TITLE "Rain"
    PERFORMER "Goombay Dance Band"
    INDEX 01 02:55:48
  TRACK 12 AUDIO
    TITLE "Marigot Bay"
    PERFORMER "Arabesque"
    INDEX 01 06:00:34
  TRACK 13 AUDIO
    TITLE "Johnny And Mary"
    PERFORMER "Robert Palmer"
    INDEX 01 09:03:45
  TRACK 14 AUDIO
    TITLE "The Winds Of Change"
    PERFORMER "Mike Batt"
    INDEX 01 11:57:54
  TRACK 15 AUDIO
    TITLE "Paradise"
    PERFORMER "Sunrise"
    INDEX 01 14:47:63
  TRACK 16 AUDIO
    TITLE "Goodbye To The Island"
    PERFORMER "Goodbye To The Island"
    INDEX 01 18:19:51
  TRACK 17 AUDIO
    TITLE "Fire In The Night"
    PERFORMER "Hot Shot"
    INDEX 01 20:59:47
  TRACK 18 AUDIO
    TITLE "Amoureux Solitaires"
    PERFORMER "Lio"
    INDEX 01 23:59:53

--------------------
http://retrovinylcdmc.ucoz.org/
Офлайн
gitarist 19 июля 2019 10:15

Дискоклуб 10А - Солисты, ансамбли, оркестры (1983)

supermouper Всё никак не перестаю удивляться вашим коментам. Классно! Спасибо!

--------------------
http://retrovinylcdmc.ucoz.org/
Офлайн
gitarist 12 июля 2019 17:33

Зачистка неработающих публикаций

Цитата: ALexPetrov

Добрый день

 

Не работает единственная ссылка для публикации 

Nonstop Dancing mit der Frank Valdor Band - 28 Schlager Jede Menge Hits (1967)
30/01/2017 10:01

автор samerset 

облако mail

 

Хотелось бы восстановить.
Спасибо.

 

Он и у меня на сайте все свои ссылки заблокировал. Но есть у меня на сайте и моя собственная оцифровка этого винила в 24/192. Пока сюда не планирую выкладывать. Если очень нужно, добро пожаловать ко мне на сайт!

--------------------
http://retrovinylcdmc.ucoz.org/
Офлайн
gitarist 11 июля 2019 19:33

[24/192] Frank Valdor - Trompeten A Gogo (1968)

Рад что понравилось!

--------------------
http://retrovinylcdmc.ucoz.org/
Офлайн
gitarist 9 июля 2019 20:51

Various - Kalinka 1970

--------------------
http://retrovinylcdmc.ucoz.org/
Офлайн
gitarist 9 июля 2019 09:16

Various - Kalinka 1970

Цитата: funtic

plastinka, будьте добры, перезалейте куда-нибудь, ссылки умерли

 

Это моя старая оцифровка с низким качеством. Есть у меня готовая в 24/192, её выложу в новую раздачу.

--------------------
http://retrovinylcdmc.ucoz.org/
Офлайн
gitarist 5 июля 2019 08:25

Modern Talking - Romantic Dreams (MC rip) 1988

Как всегда, спасибо за такой объёмный коментарий!

--------------------
http://retrovinylcdmc.ucoz.org/
  • Яндекс.Метрика