Последние комментарии

Офлайн
boyhunt 10 июня 2013 12:20

The Benny Simon Band - London Hit Parade For Dancing (1974)

друзья если возможно продлите раздачу... заранее спасибо...
Офлайн
boyhunt 10 июня 2013 08:45

Анна Герман (1969)

куе для необработанного материала
REM GENRE Pop
REM DATE 1969
REM PLASTINKA.ORG
PERFORMER "Анна Герман"
TITLE "Анна Герман"
FILE "1.wav" WAVE
TRACK 01 AUDIO
TITLE "Танцующие Эвридики"
INDEX 01 00:00:00
TRACK 02 AUDIO
TITLE "На тот берег"
INDEX 01 04:26:00
TRACK 03 AUDIO
TITLE "Я вернусь"
INDEX 01 07:13:00
TRACK 04 AUDIO
TITLE "Дай мне помечтать"
INDEX 01 09:48:00
TRACK 05 AUDIO
TITLE "Солнечный день"
INDEX 01 13:02:00
TRACK 06 AUDIO
TITLE "Любимый мой"
INDEX 01 15:34:00
FILE "2.wav" WAVE
TRACK 07 AUDIO
TITLE "Двое"
INDEX 01 00:00:00
TRACK 08 AUDIO
TITLE "Ночной разговор"
INDEX 01 02:12:00
TRACK 09 AUDIO
TITLE "Без тебя"
INDEX 01 05:22:00
TRACK 10 AUDIO
TITLE "По грибы"
INDEX 01 09:05:00
TRACK 11 AUDIO
TITLE "Город влюбленных"
INDEX 01 11:07:00
TRACK 12 AUDIO
TITLE "Не спеши"
INDEX 01 16:14:00
Офлайн
boyhunt 1 марта 2013 06:53

Лев Лещенко - Лев Лещенко (1974)

depositfiles.com пишет нет такого файла...
Офлайн
boyhunt 19 сентября 2012 16:45

Silver Light Grand Orchestra - Yasashiku Odotte

gavic, так все таки не понятно, сколько вы хотите за релиз, и как сам процесс обмена денег на нули и единицы будет происходить...
Офлайн
boyhunt 12 марта 2012 11:11

Мелодии и ритмы (1974)

за музыку спасибо, жаль только что куе файла нет в раздаче...
Офлайн
boyhunt 10 марта 2012 18:03

Ройял Найтс - Вокальный Квартет "Ройял Найтс" (Япония) 1979

ребята на народ залейте пожалуйста...
Офлайн
boyhunt 9 марта 2012 14:32

Various - Дружба Начинается С Улыбки (1990)

а можно на народ залить?... заранее благодарен...
  • Яндекс.Метрика