Последние комментарии

Офлайн
boyhunt 21 февраля 2020 20:40

ВИА Красные маки - Кружатся диски (1980)

FILE "ВИА Красные маки - Кружатся диски (1980)(С60 14117-18).flac" WAVE
TRACK 01 AUDIO
TITLE "Кружатся диски (Д.Тухманов - И.Кохановский)"
INDEX 01 00:00:00
TRACK 02 AUDIO
TITLE "Ясно все (А.Хоралов - И.Кохановский)"
INDEX 01 06:26:26
TRACK 03 AUDIO
TITLE "Интерлюдия (Ю.Чернавский)"
INDEX 01 12:26:00
TRACK 04 AUDIO
TITLE "Помни (А.Хоралов - И.Кохановский)"
INDEX 01 14:10:00
TRACK 05 AUDIO
TITLE "Ты мне снишься (В.Мигуля - И.Кохановский)"
INDEX 01 20:37:00
TRACK 06 AUDIO
TITLE "Я тебя не прощу (В.Добрынин - И.Кохановский)"
INDEX 01 25:31:20
TRACK 07 AUDIO
TITLE "Когда вокруг танцуют (С.Сархан - И.Кохановский)"
INDEX 01 29:39:50
TRACK 08 AUDIO
TITLE "Было и прошло (В.Добрынин - И.Кохановский)"
INDEX 01 33:08:34

Офлайн
boyhunt 21 февраля 2020 16:36

Зденка Вучкович (1969)

musicarchiv, большое Вам спасибо за музыку!!!
 

Офлайн
boyhunt 20 февраля 2020 17:54

Майя Кристалинская. Эстрадная Музыка (1975)

LP_Мания, больоше Вам спасибо!!!

Офлайн
boyhunt 16 февраля 2020 17:24
Офлайн
boyhunt 13 февраля 2020 14:40

Р.Неменова-Т.Соостер-И.Кобзон (1975) flexi

sergjazz, спасибо за музыку! Если можно добавьте куефайл )

Офлайн
boyhunt 13 февраля 2020 14:37

Не разлюби - песни Николая Шумакова (1980)

sergjazz, большое Вам спасибо за музыку! Скажите пожалуйста, акуефайл будет?

Офлайн
boyhunt 11 февраля 2020 17:59

Perez Prado And His Orchestra - Mambo Jambo (1970)

belabacsi, большое спасибо!

Офлайн
boyhunt 7 февраля 2020 16:24

The Ventures - Dance With The Ventures (1964)

vitek31rus, да я и на сборниках ее искал, пока только в лосслес на СД есть, попробую указанные Вами пластинки поискать на треккере, спасибо!

Офлайн
boyhunt 7 февраля 2020 15:20

The Ventures - Dance With The Ventures (1964)

Цитата: vitek31rus

Цитата: boyhunt

на треккере есть, я знаю, пластинка пока не появлялась )

Так если очень хочется послушать-можно и с диска послушать

, да можно конечно с диска послушать, не вопрос, просто там есть культовая одна песня на этой пластинке, и думаю, что многие бы хотели ее послушать именно с пластинки )



https://www.youtube.com/watch?v=nrGsBWmg1CY

Офлайн
boyhunt 6 февраля 2020 21:18

The Ventures - Dance With The Ventures (1964)

на треккере есть, я знаю, пластинка пока не появлялась )

Офлайн
boyhunt 6 февраля 2020 13:47

Ray Conniff - Ray Conniff's World Of Hits (1966)

sspunkerboybr, замечательная музыка! Надеюсь на продолжение! Спасибо за музыку!

Офлайн
boyhunt 6 февраля 2020 13:44

Perez Prado And His Orchestra - Mambo Jambo (1970)

vitek31rus, большое спасибо за музыку! Друзья, может кто сделает куе файл? Заранее благодарен!

 

С уважением, boyhunt

Офлайн
boyhunt 6 февраля 2020 13:15

The Ventures - Dance With The Ventures (1964)

vitek31rus, большое спасибо за музыку! Скажите пожадуйста а альбом 1967 - Super Psychedelics, есть у Вас? Очень хотелось бы послушать пластинку! Еще раз спасибо за музыку!

Офлайн
boyhunt 5 февраля 2020 09:35

Ray Conniff - Ray Conniff's World Of Hits (1966)

Архив распаковывается новой версией винрара, к сожалению пришлось удалить старую версию, а я к ней привык. Сам рип еще не слушал, поэтому отпишусь о музыке после прослушивания.

С уважением, boyhunt

P.S. spunkerboybr, большое спасибо за музыку!

Офлайн
boyhunt 4 февраля 2020 21:52

Ray Conniff - Ray Conniff's World Of Hits (1966)

Скачал архив, папка не распаковывается, подскажите пожалуйста в чем дело?

  • Яндекс.Метрика