Последние комментарии

Офлайн
boyhunt 20 сентября 2020 19:08

Sinead O'Connor – I Do Not Want What I Haven't Got (1990/1993)

digital, спасибо за музыку!!! Послушал с удовольствием!!sunglassesblush

Офлайн
boyhunt 19 сентября 2020 17:31

Sinead O'Connor – I Do Not Want What I Haven't Got (1990/1993)

digital, добрый вечер! Почему то не активна кнопка скачать...
 

Офлайн
boyhunt 16 сентября 2020 18:31

ДискоКлуб 2Б - Джазовая Музыка (1981)

LP_Мания, и Вам большое спасибо и вторую пластинку уже скачал, только еще не успел послушать, делайте пожалуйста, и выкладывайте, может так статься, что Ваша пластинка, пусть и VG, как раз то, что нужно )))

Офлайн
boyhunt 16 сентября 2020 07:43

ДискоКлуб 2Б - Джазовая Музыка (1981)

LP_Мания, большое спасибо за музыку!!!

Офлайн
boyhunt 29 августа 2020 16:23

Рондо/Rondo - Убей Меня Своей Любовью/Kill Me With Your Love (1991)

digital, большое спасибо за музыку!!!!!

Офлайн
boyhunt 29 августа 2020 15:17

София Ротару - Монолог о Любви (1987)

LP_Мания, большое спасибо, хорошая пластинка!!!

Офлайн
boyhunt 22 августа 2020 10:26

Константин Листов - Лирические Песни (1974)

LP_Мания, еще раз спасибо за музыку!!!

Офлайн
boyhunt 22 августа 2020 04:49

Константин Листов - Лирические Песни (1974)

LP_Мания, большое спасибо! Замечательная пластинка!

Офлайн
boyhunt 17 августа 2020 12:08

Boney M. - Nightflight To Venus (1978)

YASOVOK, ответил Вам на указанный почтовый адрес

Офлайн
boyhunt 11 июня 2020 15:33

Алла Пугачёва - Зеркало Души (1978)

LP_Мания, большое спасибо! А вторая пластинка будет?

Офлайн
boyhunt 30 марта 2020 12:24

Цветы - Не Надо (1973), Честно Говоря (1974)

musicarchiv, большое спасибо за музыку!!!

Офлайн
boyhunt 21 марта 2020 12:23

Franck Pourcel Et Son Grand Orchestre - Popular Super Gold 2000 - Best Of Franck Pourcel (1977)

FILE "ODEON EOS-60007.wav" WAVE
TRACK 01 AUDIO
TITLE "Adoro"
INDEX 01 00:00:00
TRACK 02 AUDIO
TITLE "Mister Lonely"
INDEX 01 02:50:00
TRACK 03 AUDIO
TITLE "Love Theme From A Star Is Born"
INDEX 01 05:38:00
TRACK 04 AUDIO
TITLE "Venise Va Mourir"
INDEX 01 09:12:00
TRACK 05 AUDIO
TITLE "Feelings"
INDEX 01 12:00:00
TRACK 06 AUDIO
TITLE "Il Torrente"
INDEX 01 15:34:00
TRACK 07 AUDIO
TITLE "St. Nicola"
INDEX 01 18:38:00
TRACK 08 AUDIO
TITLE "Concorde"
INDEX 01 21:50:00
TRACK 09 AUDIO
TITLE "Soleado"
INDEX 01 25:38:00
TRACK 10 AUDIO
TITLE "La Playa"
INDEX 01 28:45:00
TRACK 11 AUDIO
TITLE "Sous Le Ciel de Paris"
INDEX 01 32:11:00
TRACK 12 AUDIO
TITLE "Misty"
INDEX 01 34:55:00
TRACK 13 AUDIO
TITLE "Stranger On The Shore"
INDEX 01 37:37:00
TRACK 14 AUDIO
TITLE "Mon Coeur Est Comme Un Violon"
INDEX 01 40:31:00
TRACK 15 AUDIO
TITLE "A Summer Place"
INDEX 01 43:32:00
TRACK 16 AUDIO
TITLE "Ebb Tide"
INDEX 01 46:57:00

Офлайн
boyhunt 21 марта 2020 12:03

Fausto Papetti - Golden Fausto Papetti Vol.3 (1971)

Цитата: JazzBiker

Где нужно исправить, чтобы cue работал.

, не только куефайл, но сам файл GLOBE SWG-7047 в фубаре не проигрывает!



Цитата: boyhunt

Цитата: JazzBiker

Где нужно исправить, чтобы cue работал.

, не только куефайл, но сам файл GLOBE SWG-7047 в фубаре не проигрывает!

, извиняюсь, файл в фубаре отдельно от куефайла проигрывается, а вот с куефайлом, что-то ни как не могу разобраться )



Цитата: boyhunt
September In The Rain
, разобрался, вот рабочий куефайл

FILE "GLOBE SWG-7047.wav" WAVE
TRACK 01 AUDIO
TITLE "More"
INDEX 01 00:00:00
TRACK 02 AUDIO
TITLE "In Ginocchio Da Te"
INDEX 01 02:20:00
TRACK 03 AUDIO
TITLE "The Green Leaves Of Summer"
INDEX 01 05:06:00
TRACK 04 AUDIO
TITLE "Unchained Melody"
INDEX 01 07:25:00
TRACK 05 AUDIO
TITLE "Indian Love Call"
INDEX 01 10:06:00
TRACK 06 AUDIO
TITLE "Sleepy Lagoon"
INDEX 01 12:50:00
TRACK 07 AUDIO
TITLE "Perfidia"
INDEX 01 15:25:00
TRACK 08 AUDIO
TITLE "Caravan"
INDEX 01 17:44:00
TRACK 09 AUDIO
TITLE "Lonely Room"
INDEX 01 19:53:00
TRACK 10 AUDIO
TITLE "Tabu"
INDEX 01 22:15:00
TRACK 11 AUDIO
TITLE "Come September"
INDEX 01 24:59:00
TRACK 12 AUDIO
TITLE "Amore Scusami"
INDEX 01 27:40:00
TRACK 13 AUDIO
TITLE "Jungle Drums"
INDEX 01 30:33:00
TRACK 14 AUDIO
TITLE "September In The Rain"
INDEX 01 33:40:00

Офлайн
boyhunt 1 марта 2020 06:27

Поет Янош Коош (1970)

Цитата: Rifkat

Чет скачал с яндекс диска - винрар ругается - архив битый пишет :( С Меги то же самое. Это у меня одного так?

, скачайте обновленную версию архиватора

Офлайн
boyhunt 28 февраля 2020 05:02
  • Яндекс.Метрика