George Benson - Let's Do It Again (1988) 33RPM Single

**Vinylrip by plastinka (nickhome)**

George Benson - Let's Do It Again (1988) 33RPM Single

*Пластинка из коллекции пользователя ildarrrr*

Название винила: Let's Do It Again
Исполняет: George Benson
Жанр: Jazz, Funk, Soul, Electronic
Выпущено в: 1988
Композиций: 05
Пластинок: 1
Фирма: Warner Bros. Records (Made in USA)
Номер по каталогу: 0-21071

Формат: lossless flac 24/192 kHz tracks
Вес: 950 Мб (3% на восстановление)

Предпрослушка: mp3 vbr 192 kbps


Список композиций:
01. Let's Do It Again (Extended Version)
02. Let's Do It Again (Instrumental)
03. Let's Do It Again (Acca Dubba)
04. Let's Do It Again (Radio Remix)
05. Let Go

Спасибо, ildarrrr, за еще один замечательный сингл Бенсона!



Скачать lossless 24-192 (950 Мб):
Внимание! У Вас нет прав для просмотра скрытого текста.


-1

Комментариев 8

Офлайн
adamas731 7 августа 2016 10:52
Премного благодарен! У Вас часом Leo Sayer не завалялся? winked
Офлайн
plastinka 7 августа 2016 11:22
Цитата: adamas731
Премного благодарен! У Вас часом Leo Sayer не завалялся? winked

Пожалуйста!
Нет, Лео у меня в коллекции, к сожалению, нет. Если кто-нибудь только даст на оцифровку. )
Офлайн
adamas731 7 августа 2016 12:09
Цитата: plastinka
Цитата: adamas731
Премного благодарен! У Вас часом Leo Sayer не завалялся? winked

Пожалуйста!
Нет, Лео у меня в коллекции, к сожалению, нет. Если кто-нибудь только даст на оцифровку. )


Один из самых интересных британских поп-рок-исполнителей 70-х и незаслуженно подзабытый. Притом великолепнейший вокалист
Офлайн
superglaz 8 августа 2016 14:28
Цитата: adamas731
Цитата: plastinka
Цитата: adamas731
Премного благодарен! У Вас часом Leo Sayer не завалялся? winked

Пожалуйста!
Нет, Лео у меня в коллекции, к сожалению, нет. Если кто-нибудь только даст на оцифровку. )


Один из самых интересных британских поп-рок-исполнителей 70-х и незаслуженно подзабытый. Притом великолепнейший вокалист

Причём фору даст тому же Фредди Меркури! Они совместно записали одну композицию. И... Фреди потянул лишь на Бэк Вокал!! Thunder in my heart. Насчёт подзабытости, отнюдь нет. Но... от него хотят только старых песен, а он(наглец, блин! :) ) пишет прекрасные новые. В конце 2015 года он выпустил прекраснейший альбом!!! Leo Sayer - The Restless Years. У меня он где то имеется в лосслесс.
Офлайн
adamas731 8 августа 2016 21:28
Цитата: superglaz
Цитата: adamas731
Цитата: plastinka
Цитата: adamas731
Премного благодарен! У Вас часом Leo Sayer не завалялся? winked

Пожалуйста!
Нет, Лео у меня в коллекции, к сожалению, нет. Если кто-нибудь только даст на оцифровку. )


Один из самых интересных британских поп-рок-исполнителей 70-х и незаслуженно подзабытый. Притом великолепнейший вокалист

Причём фору даст тому же Фредди Меркури! Они совместно записали одну композицию. И... Фреди потянул лишь на Бэк Вокал!! Thunder in my heart. Насчёт подзабытости, отнюдь нет. Но... от него хотят только старых песен, а он(наглец, блин! :) ) пишет прекрасные новые. В конце 2015 года он выпустил прекраснейший альбом!!! Leo Sayer - The Restless Years. У меня он где то имеется в лосслесс.



Leo Sayer Restless Years. Зальёте на яндекс?
Офлайн
adamas731 14 августа 2016 22:59
Цитата: superglaz
Цитата: adamas731
Цитата: plastinka
Цитата: adamas731
Премного благодарен! У Вас часом Leo Sayer не завалялся? winked

Пожалуйста!
Нет, Лео у меня в коллекции, к сожалению, нет. Если кто-нибудь только даст на оцифровку. )


Один из самых интересных британских поп-рок-исполнителей 70-х и незаслуженно подзабытый. Притом великолепнейший вокалист

Причём фору даст тому же Фредди Меркури! Они совместно записали одну композицию. И... Фреди потянул лишь на Бэк Вокал!! Thunder in my heart. Насчёт подзабытости, отнюдь нет. Но... от него хотят только старых песен, а он(наглец, блин! :) ) пишет прекрасные новые. В конце 2015 года он выпустил прекраснейший альбом!!! Leo Sayer - The Restless Years. У меня он где то имеется в лосслесс.


Скачал альбом Лео The Restless Years 2015, foobar2000 1.3.10 / Замер динамического диапазона (DR) 1.1.1
Дата отчёта: 2016-08-13 20:01:30

--------------------------------------------------------------------------------
Анализ: Leo Sayer / Restless Years
--------------------------------------------------------------------------------

DR Пики RMS Продолжительность трека
--------------------------------------------------------------------------------
DR7 0.00 дБ -9.20 дБ 5:42 01-Beautiful Year
DR6 0.00 дБ -7.57 дБ 3:18 02-Competing With A Dj
DR6 0.00 дБ -6.89 дБ 4:46 03-How Did We Get So Old
DR5 0.00 дБ -6.90 дБ 3:42 04-Revolution Of The Heart
DR5 0.00 дБ -6.42 дБ 4:49 05-Millenium Wheel
DR7 0.00 дБ -8.31 дБ 3:14 06-Restless Years
DR6 0.00 дБ -8.43 дБ 7:04 07-One Green World
DR6 0.00 дБ -7.51 дБ 4:48 08-The Wrong Man
DR6 0.00 дБ -7.88 дБ 4:04 09-Look Around
DR6 0.00 дБ -8.06 дБ 4:40 10-The Radio Song
DR6 0.00 дБ -7.58 дБ 4:53 11-Sometimes Things Go Wrong
DR6 0.00 дБ -7.29 дБ 4:37 12-To The River
DR8 0.00 дБ -10.30 дБ 4:04 13-Mister In Between
--------------------------------------------------------------------------------

Количество треков: 13
Реальные значения DR: DR6

Частота: 44100 Гц
Каналов: 2
Разрядность: 16
Битрейт: 874 кбит/с
Кодек: FLAC
================================================================================


================================================================================

Мягко сказать не очеь
Офлайн
superglaz 18 августа 2016 21:40
[quote=adamas731][quote=superglaz][quote=adamas731][quote=plastinka][quote=adamas731]

Мягко сказать не очень[/quote]
Кому как. Мне альбом как раз понравился.
Офлайн
adamas731 18 августа 2016 22:11
[quote=superglaz][quote=adamas731][quote=superglaz][quote=adamas731][quote=plastinka][quote=adamas731]

Мягко сказать не очень[/quote]
Кому как. Мне альбом как раз понравился.[/quote]

Конечно, материл отличный,но зачем же диапазон гробить.
Информация
Посетители, находящиеся в группе Гость, не могут оставлять комментарии к данной публикации.
  • Яндекс.Метрика