П.Чайковский - Концерт для скрипки с оркестром D-dur, op.35

П.Чайковский - Концерт для скрипки с оркестром D-dur, op.35


Информация о пластинке:
Название: П.Чайковский - Концерт для скрипки с оркестром D-dur, op.35
Исполнитель: Д.Ойстрах, Симфоничесий оркестр Московской гос. филармонии - дирижер К.Кондрашин
Жанр: Classical, orchestra
Год выпуска: 1964
Год записи: 1958
Количество композиций: 01
Количество пластинок: 1
Фирма: Апрелевский завод (Made in USSR)
Номер по каталогу: Д14619-20

Информация о файле с оцифровкой:
Формат: flac
Качество: lossless 24 bit/96 kHz (mono)
Размер файла: 323 Мб

Предпрослушка: mp3 cbr 320 kbps


Список композиций:
01. Allegro moderato
Moderato assi
02 Canzonetta, Andante
03 Finale. Allegro vivacissimo

Давид Ойстрах
Симфоничесий оркестр Московской гос. филармонии
дирижер К.Кондрашин

запись из концертного зала 1958г.



Скачать lossless 24-96 :
mail.cloud

+5

Комментариев 3

Офлайн
val2015 30 июня 2015 21:58
Вообще-то неплохо бы cue-файл включать в раздачу
Офлайн
sergjazz 1 июля 2015 01:25
Цитата: val2015
Вообще-то неплохо бы cue-файл включать в раздачу

Не умею создавать его и нет желания. Слушаю как целое произведение, Если сможете написать,добавлю его к этой пластинке.

с уважением
Офлайн
martynov75 8 сентября 2015 14:04
Желающим cue-файл:

PERFORMER "Давид Ойстрах, Кирилл Кондрашин"
TITLE "П.Чайковский - Концерт для скрипки с оркестром ре мажор, соч.35"
FILE "Чайковский - Скрипичный концерт (Ойстрах).flac" WAVE
TRACK 01 AUDIO
TITLE "Allegro moderato. Moderato assai"
INDEX 01 00:00:00
TRACK 02 AUDIO
TITLE "Canzonetta. Andante"
INDEX 01 18:24:00
TRACK 03 AUDIO
TITLE "Finale. Allegro vivacissimo"
INDEX 01 25:20:30
Информация
Посетители, находящиеся в группе Гость, не могут оставлять комментарии к данной публикации.
  • Яндекс.Метрика