Various - Гороскоп - Вокальная Сюита (1988)

Various - Гороскоп - Вокальная Сюита (1988)


Информация о пластинке:
Название: Гороскоп - Вокальная Сюита
Исполнитель: Various
Жанр: Pop Rock, USSR
Год выпуска: 1988
Количество композиций: 12
Количество пластинок: 1
Фирма: Мелодия
Номер по каталогу: С60 27769 002

Информация о файле с оцифровкой:
Формат: Flac 24 bit/96 kHz + 320 Kbps/CBR
Качество: Lossless + Mp3
Размер файла: 869Mb + 99.3Мb (3% на восстановление)

Предпрослушка: mp3 320 kbps


Список композиций:
SideА
A1-Обезьяна - А.Глызин
A2-Собака - А.Градский
A3-Дракон - А.Барыкин
A4-Лошадь - А.Сапунов
A5-Змея - В.Пресняков (младший)
A6-Петух - И.Николаев
SideВ
B1-Тигр - А.Пугачева
B2-Кот - А.Кальянов
B3-Свинья - С.Минаев
B4-Крыса - В.Кузьмин
B5-Коза - К.Орбакайте
B6-Вол - А.Нефедов

Музыка - Владимира Преснякова (старшего)
Стихи - Валерия Сауткина
Группа "Угол Зрения" п/у В.Преснякова (старшего)


Скачать Lossless:
Внимание! У Вас нет прав для просмотра скрытого текста.

Внимание! У Вас нет прав для просмотра скрытого текста.


Скачать Mp3:
Внимание! У Вас нет прав для просмотра скрытого текста.

Внимание! У Вас нет прав для просмотра скрытого текста.


Новость отредактировал: plastinka - 2-07-2013, 15:22
Причина: Все ссылки в релизе умерли. У кого сохранилась эта оцифровка просьба перезалить и оставить ссылку в комментариях.

+5

Комментариев 1

Офлайн
kotofey 2 января 2012 19:56
а вот и cue-файл (только что сам слепил, надеюсь, что сильно не налажал)

да, вместо дурацкого смайлика 10 должно быть двоеточие10двоеточие

REM DATE 1988
REM GENRE "Вокальная сюита"
PERFORMER "Various"
TITLE "Гороскоп"
FILE "Side A.flac" WAVE
TRACK 01 AUDIO
PERFORMER "А.Глызин"
TITLE "Обезьяна"
INDEX 01 00:00:00
TRACK 02 AUDIO
PERFORMER "А.Градский"
TITLE "Собака"
INDEX 01 03:38:03
TRACK 03 AUDIO
PERFORMER "А.Барыкин"
TITLE "Дракон"
INDEX 01 06:14:73
TRACK 04 AUDIO
PERFORMER "А.Сапунов"
TITLE "Лошадь"
INDEX 01 08:57:14
TRACK 05 AUDIO
PERFORMER "В.Пресняков (младший)"
TITLE "Змея"
INDEX 01 14:37:31
TRACK 06 AUDIO
PERFORMER "И.Николаев"
TITLE "Петух"
INDEX 01 18:02:42
FILE "Side B.flac" WAVE
TRACK 07 AUDIO
PERFORMER "А.Пугачева"
TITLE "Тигр"
INDEX 01 00:00:00
TRACK 08 AUDIO
PERFORMER "А.Кальянов"
TITLE "Кот"
INDEX 01 02:59:00
TRACK 09 AUDIO
PERFORMER "С.Минаев"
TITLE "Свинья"
INDEX 01 061030
TRACK 10 AUDIO
PERFORMER "В.Кузьмин"
TITLE "Крыса"
INDEX 01 09:02:71
TRACK 11 AUDIO
PERFORMER "К.Орбакайте"
TITLE "Коза"
INDEX 01 12:39:37
TRACK 12 AUDIO
PERFORMER "А.Нефедов"
TITLE "Вол"
INDEX 01 15:54:13
Информация
Посетители, находящиеся в группе Гость, не могут оставлять комментарии к данной публикации.
  • Яндекс.Метрика